Правила форума

  • В этом разделе создание новых тем Запрещено.
  • Для создания новых тем пользуйтесь Корневым разделом DVD и HD фильмы.
Начать новую темуОтветить на тему  [ Сообщений: 3 ] 
Торрент файл
Размер: 8.43 GB • Зарегистрирован: 4 года 3 месяца • Статус: Проверено
Скачан: 342 раза • Желающих скачать: 0 • Поблагодарили: 59 раз
 Раздают: 0  |  0 KB/s  ]   Качают: 0  |  0 KB/s  ] 
 Полного источника не было 44 минуты 
Сообщения
 Добавлено: 2012-08-26 22:49
Модератор
Аватара пользователя
Стаж: 6 лет 10 месяцев
Возраст: 33
Сообщений: 5908
Спасибок: 61239
Лайков: 3540
Изображение

Диктатор
The Dictator


Год выпуска: 2012
Страна: США
Жанр: комедия
Продолжительность: 01:23:18
Перевод: Профессиональный (полное дублирование) Лицензия
Режиссер: Ларри Чарльз
Сценарий: Саша Барон Коэн, Алек Берг, Дэвид Мэндел, Джефф Шеффер
Продюсер: Саша Барон Коэн, Алек Берг, Дэвид Мэндел, Скотт Рудин, Джефф Шеффер
Оператор: Лоуренс Шер
Композитор: Эрран Барон Коэн
В ролях: Саша Барон Коэн, Анна Фэрис, Бен Кингсли, Джейсон Манцукас, Саид Бадрия, Мишель Берг, Роки Ситрон, Лиам Кампора, Аасиф Мандви, Ризван Манжи, Рик Чэмберс, Эльсайед Мохамед
Бюджет: $65 000 000
Сборы в США: $59 650 222
Сборы в России: $5 940 266
Сборы в мире: $170 042 391
Мировая премьера: 16 мая 2012
Релиз на DVD: 27 августа 2012, «Новый Диск»
Релиз на Blu-ray: 10 сентября 2012, «Новый Диск»
Описание: Героическая история диктатора, который рискует своей жизнью, чтобы ни в коем случае не допустить демократию в свою столь любовно угнетаемую страну.

Изображение User Rating: 6.780 (16 675)
Изображение User Rating: 6.60 (56 932)
MPAA: R - Лицам до 17 лет обязательно присутствие взрослого
Раздача группы: Изображение
Качество: BDRip, 1080p
Формат: Matroska
Видео: AVC; 1920x800 (2.40:1); 11794 Kbps; 23,976 fps; 0,320 bit/pixel
Аудио №1: Russian; AC3; 448 Kbps; CBR; 6 ch
Аудио №2: Ukrainian; AC3; 448 Kbps; CBR; 6 ch
Аудио №3: DTS; 1509 Kbps; CBR; 6 ch; 24 bit
Оригинал
Субтитры №1: Russian
Субтитры №2: Ukrainian
Субтитры №3:

mediainfo
Complete name : Diktator.2012.D.BDRip.1080p.IRONCLUB.mkv
Format : Matroska
Format version : Version 2
File size : 8.43 GiB
Duration : 1h 23mn
Overall bit rate : 14.5 Mbps
Movie name : IRONCLUB
Encoded date : UTC 2012-08-26 15:00:10
Writing application : mkvmerge v4.9.1 ('Ich will') built on Jul 11 2011 23:53:15
Writing library : libebml v1.2.1 + libmatroska v1.1.1

Video
ID : 1
Format : AVC
Format/Info : Advanced Video Codec
Format profile : High@L5.0
Format settings, CABAC : Yes
Format settings, ReFrames : 8 frames
Codec ID : V_MPEG4/ISO/AVC
Duration : 1h 23mn
Bit rate : 12.1 Mbps
Width : 1 920 pixels
Height : 800 pixels
Display aspect ratio : 2.40:1
Frame rate : 23.976 fps
Color space : YUV
Chroma subsampling : 4:2:0
Bit depth : 8 bits
Scan type : Progressive
Bits/(Pixel*Frame) : 0.328
Stream size : 6.86 GiB (81%)
Writing library : x264 core 125 r2200 999b753
Encoding settings : cabac=1 / ref=8 / deblock=1:-1:-1 / analyse=0x3:0x133 / me=umh / subme=7 / psy=1 / psy_rd=1.00:0.10 / mixed_ref=1 / me_range=16 / chroma_me=1 / trellis=2 / 8x8dct=1 / cqm=0 / deadzone=21,11 / fast_pskip=0 / chroma_qp_offset=-3 / threads=12 / lookahead_threads=2 / sliced_threads=0 / nr=0 / decimate=1 / interlaced=0 / bluray_compat=0 / constrained_intra=0 / bframes=4 / b_pyramid=2 / b_adapt=2 / b_bias=0 / direct=3 / weightb=1 / open_gop=0 / weightp=2 / keyint=250 / keyint_min=23 / scenecut=40 / intra_refresh=0 / rc_lookahead=50 / rc=2pass / mbtree=1 / bitrate=12082 / ratetol=1.0 / qcomp=0.60 / qpmin=0 / qpmax=69 / qpstep=4 / cplxblur=20.0 / qblur=0.5 / ip_ratio=1.40 / aq=1:1.00
Language : English
Default : Yes
Forced : Yes

Audio #1
ID : 2
Format : AC-3
Format/Info : Audio Coding 3
Mode extension : CM (complete main)
Format settings, Endianness : Big
Codec ID : A_AC3
Duration : 1h 23mn
Bit rate mode : Constant
Bit rate : 448 Kbps
Channel(s) : 6 channels
Channel positions : Front: L C R, Side: L R, LFE
Sampling rate : 48.0 KHz
Bit depth : 16 bits
Compression mode : Lossy
Stream size : 267 MiB (3%)
Title : DD 5.1 @ 448 kbps - Dub, R5
Language : Russian
Default : Yes
Forced : Yes

Audio #2
ID : 3
Format : AC-3
Format/Info : Audio Coding 3
Mode extension : CM (complete main)
Format settings, Endianness : Big
Codec ID : A_AC3
Duration : 1h 23mn
Bit rate mode : Constant
Bit rate : 448 Kbps
Channel(s) : 6 channels
Channel positions : Front: L C R, Side: L R, LFE
Sampling rate : 48.0 KHz
Bit depth : 16 bits
Compression mode : Lossy
Stream size : 267 MiB (3%)
Title : DD 5.1 @ 448 kbps - Dub, R5
Language : Ukrainian
Default : No
Forced : No

Audio #3
ID : 4
Format : DTS
Format/Info : Digital Theater Systems
Codec ID : A_DTS
Duration : 1h 23mn
Bit rate mode : Constant
Bit rate : 1 510 Kbps
Channel(s) : 6 channels
Channel positions : Front: L C R, Side: L R, LFE
Sampling rate : 48.0 KHz
Bit depth : 24 bits
Compression mode : Lossy
Stream size : 900 MiB (10%)
Title : DTS 5.1 @ 1536 kbps
Language : English
Default : No
Forced : No

Text #1
ID : 5
Format : UTF-8
Codec ID : S_TEXT/UTF8
Codec ID/Info : UTF-8 Plain Text
Title : R5
Language : Russian
Default : No
Forced : No

Text #2
ID : 6
Format : UTF-8
Codec ID : S_TEXT/UTF8
Codec ID/Info : UTF-8 Plain Text
Language : Ukrainian
Default : No
Forced : No

Text #3
ID : 7
Format : UTF-8
Codec ID : S_TEXT/UTF8
Codec ID/Info : UTF-8 Plain Text
Language : English
Default : No
Forced : No
Свернуть
"Знаете ли Вы, что..."
  • В эпизоде №100 (сезон 17) «Ежедневного шоу» c Джоном Стюартом раскрывается, что первое имя Аладина - Шабазз.
  • Фотографии возлюбленных Аладина, в дополнение к Меган Фокс, включают в себя, в том числе и Линдси Лохан, Холли Берри, Эллен ДеДженерес и Арнольда Шварценеггера.
  • На самом деле Аладин и Надал на вертолётной экскурсии разговаривают на иврите, а не на арабском языке.
  • В сцене, где Аладин развлекается с девушками, они оголяются по пояс. В следующей сцене все девушки кроме одной одеты.
  • Дополнительные сцены во время финальных титров включают в себя так же и моменты создания фильма.
  • Вымышленная Республика Вадия расположена там же, где находится реальная страна Эритрея.
  • Саша Барон Коэн посетил 84-ю церемонию вручения премии «Оскар» в образе Аладина, он был одет в тот же костюм, что и в фильме и сопровождался своими «охранниками-девственницами». Во время интервью ничего не подозревающему Райану Сикресту он держал урну, в которой, как он утверждал, находился прах покойного северокорейского диктатора Ким Чен Ира. А дальше Коэн высыпал пепел прямо на смокинг Сикресту.
  • В рекламных снимках главного героя на белом фоне, он носит орденские ленты, среди которых:• Медаль за «Службу в Антарктике» (третий ряд, крайняя левая).• Медаль «Освобождения Кувейта» (седьмой ряд, крайняя левая).• Медаль за «Защиту Филиппинских островов во Второй Мировой войне» (пятый ряд, крайняя левая) и медаль за «Освобождение Филиппин» (пятый ряд, вторая слева).• Одна похожа на Бельгийскую медаль «За боевые заслуги» (пятый ряд, крайняя правая).• Французская медаль «За боевые заслуги» (пятый ряд, вторая справа). Есть как минимум два повторения: 16 ряд, справа с краю та же медаль, что и в 14 ряду, вторая справа, и в 11 ряду, слева с краю. На рекламном постере к фильму, по крайней мере, одна медаль (Бельгийская медаль «За боевые заслуги») изменена, и есть повторения целыми группами: 11 и 12 ряды повторяются так же, как и 18 и 19.Когда Адмирал-генерал Аладин спускается по тросу, то сначала он держится за ручки двумя руками. В следующем кадре он появляется висящим на проводе, без объяснения того как это произошло.
Свернуть
Скриншоты

Изображение
Изображение
Изображение
Свернуть
_________________
ИзображениеИзображение Изображение
Изображение
 tany1984 и di-ys1 нравится это.
Не в сети
Профиль  
 Добавлено: 2012-09-01 17:40 (спустя 5 дней)
Стаж: 4 года 11 месяцев
Сообщений: 15
Фильм Бомба,советую всем,ржака!!!
Не в сети
Профиль  
 Добавлено: 2014-09-24 16:10 (спустя 2 года)
Стаж: 8 лет 3 месяца
Сообщений: 34
Скорости бы)
Не в сети
Профиль  
Начать новую темуОтветить на тему  [ Сообщений: 3 ] 
Вы не можете начинать темы
Вы не можете отвечать на сообщения
Вы не можете редактировать свои сообщения
Вы не можете удалять свои сообщения