Правила форума

  • В этом разделе создание новых тем Запрещено.
  • Для создания новых тем пользуйтесь Корневым разделом DVD и HD фильмы.
Начать новую темуОтветить на тему  [ Сообщений: 3 ] 
Торрент файл
Размер: 8.23 GB • Зарегистрирован: 5 лет 7 месяцев • Статус: # Сомнительно
Скачан: 141 раз • Желающих скачать: 0 • Поблагодарили: 21 раз
 Раздают: 0  |  0 KB/s  ]   Качают: 0  |  0 KB/s  ] 
 Полного источника не было 1 год 11 месяцев 
Сообщения
 Добавлено: 2011-04-24 10:54
Аватара пользователя
Стаж: 6 лет 6 месяцев
Сообщений: 214
Спасибок: 10697
Изображение

Дилемма / The Dilemma


Год выпуска: 2011
Страна: США
Слоган: «Two best friends. Nothing could come between them... or could it?»

Жанр: драма, комедия
Продолжительность: 01:51:31
Перевод: Профессиональный (полное дублирование)

Режиссер: Рон Ховард
Сценарий: Аллан Лоб
Продюсер: Брайан Грейзер, Винс Вон, Уильям М. Коннор, Тодд Халлоуэлл, Кристин Лоу
Оператор: Сальваторе Тотино
Композитор: Лорни Бэлфи, Ханс Циммер

В ролях: Винс Вон, Кевин Джеймс, Дженнифер Коннелли, Вайнона Райдер, Ченнинг Татум, Куин Латифа, Эми Мортон, Челси Росс, Эдуардо Н. Мартинез, Рэнс Ховард, Клинт Ховард, Гай Ван Сверинген
Бюджет: $70 000 000
Сборы в США: $48 475 290
Сборы в мире: $67 112 664

Мировая премьера: 13 января 2011
Релиз на DVD: Июнь 2011, «Юниверсал Пикчерс Рус»
Описание: Главные герои истории - два друга и деловых компаньона Ронни и Исаак. Однажды Ронни застукал жену друга с другим мужчиной и теперь мучается дилеммой: либо смолчать, либо рассказать обо всем обманутому товарищу.
Изображение 4.90 (3 895) Изображение 5.920 (331)
MPAA: Изображение - Детям до 13 лет просмотр не желателен
Раздача: Изображение
Изображение
Качество: BDRip (1080p) R5
Видео: MPEG-4 AVC, 8673 Кбит/с, 1920x816
Аудио: Русский (АС3, 6 ch, 384 Кбит/с), английский (DTS, 6 ch, 1536 Кбит/с)
Размер: 8.23 ГБ
Субтитры: Английские
NFO
Complete name : Dilemma.2011.x264.BDRip(1080p).mkv
Format : Matroska
File size : 8.23 GiB
Duration : 1h 51mn
Overall bit rate : 10.6 Mbps
Encoded date : UTC 2011-04-24 05:49:59
Writing application : mkvmerge v4.6.0 ('Still Crazy After All These Years') сборка от Mar 10 2011 02:50:32
Writing library : libebml v1.2.0 + libmatroska v1.1.0

Video
ID : 1
Format : AVC
Format/Info : Advanced Video Codec
Format profile : High@L4.1
Format settings, CABAC : Yes
Format settings, ReFrames : 5 frames
Codec ID : V_MPEG4/ISO/AVC
Duration : 1h 51mn
Bit rate : 8 673 Kbps
Width : 1 920 pixels
Height : 816 pixels
Display aspect ratio : 2.35:1
Frame rate : 23.976 fps
Color space : YUV
Chroma subsampling : 4:2:0
Bit depth : 8 bits
Scan type : Progressive
Bits/(Pixel*Frame) : 0.231
Stream size : 6.59 GiB (80%)
Writing library : x264 core 115 r1937 aa21558
Encoding settings : cabac=1 / ref=5 / deblock=1:0:0 / analyse=0x3:0x133 / me=umh / subme=8 / psy=1 / psy_rd=1.00:0.00 / mixed_ref=1 / me_range=16 / chroma_me=1 / trellis=1 / 8x8dct=1 / cqm=0 / deadzone=21,11 / fast_pskip=0 / chroma_qp_offset=-2 / threads=18 / sliced_threads=0 / nr=0 / decimate=1 / interlaced=0 / bluray_compat=0 / constrained_intra=0 / bframes=3 / b_pyramid=2 / b_adapt=1 / b_bias=0 / direct=1 / weightb=1 / open_gop=0 / weightp=2 / keyint=240 / keyint_min=24 / scenecut=40 / intra_refresh=0 / rc_lookahead=40 / rc=2pass / mbtree=1 / bitrate=8673 / ratetol=1.0 / qcomp=0.60 / qpmin=0 / qpmax=69 / qpstep=4 / cplxblur=20.0 / qblur=0.5 / ip_ratio=1.40 / aq=1:1.00

Audio #1
ID : 2
Format : AC-3
Format/Info : Audio Coding 3
Mode extension : CM (complete main)
Codec ID : A_AC3
Duration : 1h 51mn
Bit rate mode : Constant
Bit rate : 384 Kbps
Channel(s) : 6 channels
Channel positions : Front: L C R, Side: L R, LFE
Sampling rate : 48.0 KHz
Bit depth : 16 bits
Compression mode : Lossy
Stream size : 306 MiB (4%)
Title : Дублированный
Language : Russian

Audio #2
ID : 3
Format : DTS
Format/Info : Digital Theater Systems
Codec ID : A_DTS
Duration : 1h 51mn
Bit rate mode : Constant
Bit rate : 1 510 Kbps
Channel(s) : 6 channels
Channel positions : Front: L C R, Side: L R, LFE
Sampling rate : 48.0 KHz
Bit depth : 24 bits
Compression mode : Lossy
Stream size : 1.18 GiB (14%)
Language : English

Text
ID : 4
Format : UTF-8
Codec ID : S_TEXT/UTF8
Codec ID/Info : UTF-8 Plain Text
Language : English
Свернуть

"Скриншоты"

Изображение
Изображение
Изображение
Изображение
Изображение
Изображение
Свернуть
Не в сети
Профиль  
 Добавлено: 2011-04-25 19:25 (спустя 1 день 8 часов)
Кинокомментатор
Аватара пользователя
Стаж: 9 лет 1 месяц
Сообщений: 1332
Лайков: 54
так се? да?
Не в сети
Профиль  
 Добавлено: 2011-04-27 00:23 (спустя 1 день 4 часа)
Кинокомментатор
Аватара пользователя
Стаж: 9 лет 1 месяц
Сообщений: 1332
Лайков: 54
скууучное кино... больше писал в рипах просто)
Не в сети
Профиль  
Начать новую темуОтветить на тему  [ Сообщений: 3 ] 
Вы не можете начинать темы
Вы не можете отвечать на сообщения
Вы не можете редактировать свои сообщения
Вы не можете удалять свои сообщения