Правила форума

  • В этом разделе создание новых тем Запрещено.
  • Для создания новых тем пользуйтесь Корневым разделом DVD и HD фильмы.
Начать новую темуОтветить на тему  [ 1 сообщение ] 
Торрент файл
Размер: 3.91 GB • Зарегистрирован: 2 года 10 месяцев • Статус: T Временный релиз
Скачан: 3 раза • Желающих скачать: 0 • Поблагодарили: 3 раза
 Раздают: 0  |  0 KB/s  ]   Качают: 0  |  0 KB/s  ] 
 Полного источника не было 2 года 6 месяцев 
Сообщения
 Добавлено: 2014-01-29 15:30
Книголюб
Аватара пользователя
Стаж: 7 лет 2 месяца
Сообщений: 2823
Спасибок: 48825
Лайков: 73
Дилетанты
Green Guys

«Four villains and a crime that never ends»

Изображение


Год выпуска: 2011
Страна: США
Жанр: триллер, криминал
Продолжительность: 01:35:44
Перевод: Профессиональный (двухголосый закадровый)

Режиссёр: Коул Мюллер
В ролях: Крис Лемке, Дэвид Филлипс, Кристофер Редман, Даррел Девенпорт, Нэйтан Марлоу, Роберто «Санс» Санчес, Уильям Расс, Кристи Раундс, Джино Калабро, Корбин Тимбрук
Описание: Четверо аферистов разрабатывают уникальную схему отмывки денег, но в результате становятся жертвами своей собственной жадности.
Мировая премьера: 22 ноября 2011
Изображение 5.30044

Качество: HDTVRip 1080p
Формат: MKV
Видео кодек: H.26x
Аудио кодек: AC3 (Dolby Digital)
Видео: 1920x816 25fps 5 650 Kbps
Аудио #1: 48000Hz 6ch 448 Kbps
MediaInfo
General
Unique ID : 204166406110230955939863564834491240141 (0x999904FF09930DF0AD0DB828910A8ECD)
Complete name : K:\Torrent\Diletanty.mkv
Format : Matroska
Format version : Version 2
File size : 3.91 GiB
Duration : 1h 31mn
Overall bit rate : 6 096 Kbps
Encoded date : UTC 2014-01-26 15:20:32
Writing application : mkvmerge v5.4.0 ('Piper') built on Mar 10 2012 13:34:39
Writing library : libebml v1.2.3 + libmatroska v1.3.0

Video
ID : 1
Format : AVC
Format/Info : Advanced Video Codec
Format profile : High@L4.1
Format settings, CABAC : Yes
Format settings, ReFrames : 4 frames
Codec ID : V_MPEG4/ISO/AVC
Duration : 1h 31mn
Bit rate : 5 650 Kbps
Width : 1 920 pixels
Height : 816 pixels
Display aspect ratio : 2.35:1
Frame rate : 25.000 fps
Color space : YUV
Chroma subsampling : 4:2:0
Bit depth : 8 bits
Scan type : Progressive
Bits/(Pixel*Frame) : 0.144
Stream size : 3.54 GiB (91%)
Writing library : x264 core 125 r2208 d9d2288
Encoding settings : cabac=1 / ref=4 / deblock=1:-2:-2 / analyse=0x3:0x133 / me=umh / subme=10 / psy=1 / psy_rd=1.00:0.15 / mixed_ref=1 / me_range=32 / chroma_me=1 / trellis=2 / 8x8dct=1 / cqm=0 / deadzone=21,11 / fast_pskip=0 / chroma_qp_offset=-3 / threads=6 / lookahead_threads=1 / sliced_threads=0 / nr=0 / decimate=0 / interlaced=0 / bluray_compat=0 / constrained_intra=0 / bframes=8 / b_pyramid=2 / b_adapt=2 / b_bias=0 / direct=3 / weightb=1 / open_gop=0 / weightp=2 / keyint=250 / keyint_min=25 / scenecut=40 / intra_refresh=0 / rc=2pass / mbtree=0 / bitrate=5650 / ratetol=1.0 / qcomp=0.60 / qpmin=0 / qpmax=69 / qpstep=4 / cplxblur=20.0 / qblur=0.5 / ip_ratio=1.40 / pb_ratio=1.30 / aq=1:0.80
Default : Yes
Forced : No

Audio
ID : 2
Format : AC-3
Format/Info : Audio Coding 3
Mode extension : CM (complete main)
Codec ID : A_AC3
Duration : 1h 31mn
Bit rate mode : Constant
Bit rate : 448 Kbps
Channel(s) : 6 channels
Channel positions : Front: L C R, Side: L R, LFE
Sampling rate : 48.0 KHz
Bit depth : 16 bits
Compression mode : Lossy
Stream size : 294 MiB (7%)
Language : Russian
Default : Yes
Forced : No


Свернуть

Скриншоты
Изображение
Изображение
Изображение
Изображение
Свернуть
Не в сети
Профиль  
Начать новую темуОтветить на тему  [ 1 сообщение ] 
Вы не можете начинать темы
Вы не можете отвечать на сообщения
Вы не можете редактировать свои сообщения
Вы не можете удалять свои сообщения