Правила форума

  • В этом разделе создание новых тем Запрещено.
  • Для создания новых тем пользуйтесь Корневым разделом DVD и HD фильмы.
Начать новую темуОтветить на тему  [ 1 сообщение ] 
Торрент файл
Размер: 8.54 GB • Зарегистрирован: 4 года 8 месяцев • Статус: Проверено
Скачан: 3 раза • Желающих скачать: 0 • Поблагодарили: 3 раза
 Раздают: 0  |  0 KB/s  ]   Качают: 0  |  0 KB/s  ] 
 Полного источника не было 3 года 2 месяца 
Сообщения
 Добавлено: 2012-04-02 17:30
Модератор релиз-группы
Аватара пользователя
Стаж: 9 лет 1 месяц
Возраст: 97
Сообщений: 11659
Спасибок: 6532
Лайков: 269
Дым / Smoke

Изображение


Год выпуска: 1995
Страна: США
Жанр: Драма, Комедия
Продолжительность: 01:52:37
Перевод: Профессиональный (двухголосый закадровый) + Авторский одноголосый (Гаврилов) + Оригинальная звуковая дорожка

Режиссёр: Уэйн Ван, Пол Остер
В ролях: Джанкарло Эспозито, Хосе Суньига, Стивен Геведон, Харви Кейтель, Джаред Харрис, Уильям Хёрт, Дэниэл Остер, Хэролд Перрино, Дирдри О’Коннелл, Виктор Арго
Описание: Фильм состоит из пяти коротких глав, каждая из которых названа именем ее героя. Пять людей, пять судеб переплетаются в сладком дыме грез, образуя ту ткань, из которой и состоит наша жизнь. Это рассеянный писатель Пол, потерявший жену. Он часто заходит за сигарами к Огги, имеющему странную привычку фотографировать угол Третьей улицы и Седьмой авеню.

Рассеянного романиста спасает из-под колес семнадцатилетний парень, убежавший из дома, так как за ним гонится банда, чьи деньги он прикарманил. И так далее, и так далее…
Изображение

Качество: BDRip
Формат: mkv
Видео кодек: MPEG-4
Аудио кодек: AC3 (Dolby Digital)
Видео: 1920x1040 (16:9), 23,976 fps, x264 ~9 365 Kbps avg, 0.196 bit/pixel, Прогрессивная
Аудио #1: 48 kHz, AC3 Dolby Digital, 3/2 (L,C,R,l,r) + LFE ch, ~448.00 kbps avg [Профессиональный (двухголосый закадровый)]
Аудио #2: 48 kHz, AC3 Dolby Digital, 2/0 (L,R) ch, ~192.00 kbps avg [Авторский одноголосый (Гаврилов)]
Аудио #3: 48 kHz, AC3 Dolby Digital, 2/0 (L,R) ch, ~640.00 kbps avg [Оригинальная звуковая дорожка]
Скриншоты
Изображение
Изображение
Изображение
Изображение
Свернуть
Mi
Format : Matroska
Format version : Version 2
File size : 8.54 GiB
Duration : 1h 52mn
Overall bit rate : 10.9 Mbps
Encoded date : UTC 2012-03-29 17:36:08
Writing application : mkvmerge v3.0.0 ('Hang up your Hang-Ups') built on Jan 6 2010 22:49:38
Writing library : libebml v0.7.9 + libmatroska v0.8.1

Video
ID : 1
Format : AVC
Format/Info : Advanced Video Codec
Format profile : High@L4.1
Format settings, CABAC : Yes
Format settings, ReFrames : 4 frames
Codec ID : V_MPEG4/ISO/AVC
Duration : 1h 52mn
Bit rate : 9 365 Kbps
Width : 1 920 pixels
Height : 1 040 pixels
Display aspect ratio : 16:9
Frame rate : 23.976 fps
Color space : YUV
Chroma subsampling : 4:2:0
Bit depth : 8 bits
Scan type : Progressive
Bits/(Pixel*Frame) : 0.196
Stream size : 7.37 GiB (86%)
Title : Smoke - Raucher unter sich (1995)
Default : No
Forced : No

Audio #1
ID : 2
Format : AC-3
Format/Info : Audio Coding 3
Mode extension : CM (complete main)
Codec ID : A_AC3
Duration : 1h 52mn
Bit rate mode : Constant
Bit rate : 448 Kbps
Channel(s) : 6 channels
Channel positions : Front: L C R, Side: L R, LFE
Sampling rate : 48.0 KHz
Bit depth : 16 bits
Compression mode : Lossy
Delay relative to video : 22ms
Stream size : 361 MiB (4%)
Title : DVO
Language : Russian
Default : Yes
Forced : No

Audio #2
ID : 3
Format : AC-3
Format/Info : Audio Coding 3
Mode extension : CM (complete main)
Codec ID : A_AC3
Duration : 1h 52mn
Bit rate mode : Constant
Bit rate : 192 Kbps
Channel(s) : 2 channels
Channel positions : Front: L R
Sampling rate : 48.0 KHz
Bit depth : 16 bits
Compression mode : Lossy
Delay relative to video : 22ms
Stream size : 155 MiB (2%)
Title : AVO_Gavrilov
Language : Russian
Default : No
Forced : No

Audio #3
ID : 4
Format : AC-3
Format/Info : Audio Coding 3
Mode extension : CM (complete main)
Codec ID : A_AC3
Duration : 1h 52mn
Bit rate mode : Constant
Bit rate : 640 Kbps
Channel(s) : 2 channels
Channel positions : Front: L R
Sampling rate : 48.0 KHz
Bit depth : 16 bits
Compression mode : Lossy
Delay relative to video : 22ms
Stream size : 516 MiB (6%)
Language : English
Default : No
Forced : No

Menu
00:00:00.000 : de:00:00:00.000
00:04:58.340 : de:00:06:28.430
00:09:09.090 : de:00:10:39.180
00:16:04.964 : de:00:17:35.054
00:21:29.497 : de:00:22:59.587
00:24:48.195 : de:00:26:18.285
00:29:01.365 : de:00:30:31.455
00:36:30.730 : de:00:38:00.820
00:43:36.030 : de:00:45:06.120
00:50:23.145 : de:00:51:53.235
00:55:37.960 : de:00:57:08.050
01:03:13.081 : de:01:04:43.171
01:08:21.931 : de:01:09:52.021
01:12:24.590 : de:01:13:54.680
01:16:48.062 : de:01:18:18.152
01:19:47.700 : de:01:21:17.790
01:27:27.951 : de:01:28:58.041
01:42:03.409 : de:01:43:33.499
Свернуть
Не в сети
Профиль  
Начать новую темуОтветить на тему  [ 1 сообщение ] 
Вы не можете начинать темы
Вы не можете отвечать на сообщения
Вы не можете редактировать свои сообщения
Вы не можете удалять свои сообщения