Правила форума

  • В этом разделе создание новых тем Запрещено.
  • Для создания новых тем пользуйтесь Корневым разделом DVD и HD фильмы.
Начать новую темуОтветить на тему  [ 1 сообщение ] 
Торрент файл
Размер: 5.75 GB • Зарегистрирован: 2 года 1 месяц • Статус: Проверено
Скачан: 148 раз • Желающих скачать: 0 • Поблагодарили: 43 раза
 Раздают: 0  |  0 KB/s  ]   Качают: 0  |  0 KB/s  ] 
 Полного источника не было 7 часов 
Сообщения
 Добавлено: 2014-10-13 07:28
RG-ELEKTRO
Аватара пользователя
Стаж: 2 года 3 месяца
Сообщений: 7928
Спасибок: 53773
Лайков: 3304
Дивергент / Divergent

Изображение

Страна: США
Студия: Summit Entertainment, Red Wagon Entertainment
Год выхода: 2014
Жанр: Фантастика, боевик, триллер, приключения
Продолжительность: 02:19:31
Перевод: Дублированный

Режиссер: Нил Бёргер

В ролях: Шэйлин Вудли, Тео Джеймс, Эшли Джадд, Джай Кортни, Рэй Стивенсон, Зои Кравиц, Майлз Теллер, Тони Голдуин, Мэгги Кью, Кейт Уинслет

О фильме:
В антиутопическом Чикаго будущего существует общество, члены которого придумали способ избегать конфликтов и поддерживать вокруг незыблемый порядок. Каждый человек по достижении 16 лет должен определить, к чему лежит его душа, и в зависимости от своих личностных качеств присоединиться к одной из пяти фракций — Искренность, Бесстрашие, Эрудиция, Дружелюбие или Отречение.
Для того, чтобы и не ошибиться с фракцией, накануне церемонии выбора подростки проходят специальное тестирование. Юная Беатрис оказывается угрозой для всей сложившейся системы, когда тесты выявляют в ней дивергента — человека, которого невозможно однозначно определить в одну из фракций. Способные мыслить независимо и не питающие особого уважения к правительству, дивергенты одним своим существованием дискредитируют принципы, на которых строится общество. И теперь Беатрис — одна из таких людей, живущих вне закона и борющихся с системой, которая намерена любой ценой от них избавиться.

Изображение

Кодек: x264
Качество: BDRip 720p
Формат: MKV
Видео: MPEG-4 AVC, 3000 Кбит/с, 1280x720, 24.000 кадр/с
Звук:
Аудио #1: Русский (AC3, 6 ch, 640 Кбит/с) / Дублированный (Blu-ray, RUS)
Аудио #2: Русский (DTS, 6 ch, 768 Кбит/с) / Дублированный (Blu-ray, RUS)
Аудио #3: Английский (DTS, 6 ch, 1510 Кбит/c)
Субтитры: Русские, английские

"О релизе"
Отличие трансферов US vs RUS - http://screenshotcomparison.com/comparison/95498
Свернуть
"log x264"
raw [info]: 1280x720p 1:1 @ 24/1 fps (cfr)
x264 [info]: using SAR=1/1
x264 [info]: using cpu capabilities: MMX2 SSE2Fast SSSE3 SSE4.2 AVX AVX2 FMA3 LZCNT BMI2
x264 [info]: profile High, level 4.1
x264 [info]: frame I:1640 Avg QP:15.10 size: 90112
x264 [info]: frame P:54661 Avg QP:17.61 size: 29191
x264 [info]: frame B:144611 Avg QP:19.20 size: 9616
x264 [info]: consecutive B-frames: 5.2% 5.9% 17.5% 21.1% 15.5% 30.3% 2.9% 0.6% 1.0%
x264 [info]: mb I I16..4: 9.3% 75.2% 15.5%
x264 [info]: mb P I16..4: 3.3% 17.0% 1.8% P16..4: 32.3% 31.5% 7.1% 0.9% 0.1% skip: 6.1%
x264 [info]: mb B I16..4: 0.5% 1.9% 0.2% B16..8: 36.2% 17.1% 2.0% direct: 4.8% skip:37.4% L0:43.2% L1:47.9% BI: 8.9%
x264 [info]: 8x8 transform intra:75.8% inter:66.2%
x264 [info]: direct mvs spatial:98.3% temporal:1.7%
x264 [info]: coded y,uvDC,uvAC intra: 66.5% 61.1% 31.7% inter: 17.0% 18.9% 5.4%
x264 [info]: i16 v,h,dc,p: 20% 15% 6% 59%
x264 [info]: i8 v,h,dc,ddl,ddr,vr,hd,vl,hu: 10% 7% 12% 9% 12% 12% 12% 12% 13%
x264 [info]: i4 v,h,dc,ddl,ddr,vr,hd,vl,hu: 15% 10% 14% 8% 13% 12% 10% 9% 10%
x264 [info]: i8c dc,h,v,p: 34% 32% 20% 15%
x264 [info]: Weighted P-Frames: Y:10.4% UV:5.5%
x264 [info]: ref P L0: 50.8% 8.2% 18.2% 7.3% 5.3% 3.8% 3.2% 2.3% 0.8% 0.1%
x264 [info]: ref B L0: 75.9% 11.5% 5.6% 3.0% 2.3% 1.2% 0.5%
x264 [info]: ref B L1: 92.7% 7.3%
x264 [info]: kb/s:2994.99
Свернуть
"MI"
Format settings, CABAC : Yes
Format settings, ReFrames : 8 frames
Codec ID : V_MPEG4/ISO/AVC
Duration : 2h 19mn
Bit rate : 3 000 Kbps
Width : 1 280 pixels
Height : 720 pixels
Display aspect ratio : 16:9
Frame rate mode : Constant
Frame rate : 24.000 fps
Color space : YUV
Chroma subsampling : 4:2:0
Bit depth : 8 bits
Scan type : Progressive
Bits/(Pixel*Frame) : 0.136
Stream size : 2.81 GiB (49%)
Title : Divergent 2014 BDRip-720p (RUS Transfer) [MediaClub - MINION]
Writing library : x264 core 142 r2431 ac76440
Encoding settings : cabac=1 / ref=8 / deblock=1:-3:-3 / analyse=0x3:0x133 / me=umh / subme=11 / psy=1 / psy_rd=1.00:0.10 / mixed_ref=1 / me_range=48 / chroma_me=1 / trellis=2 / 8x8dct=1 / cqm=0 / deadzone=21,11 / fast_pskip=0 / chroma_qp_offset=-3 / threads=6 / lookahead_threads=1 / sliced_threads=0 / nr=0 / decimate=0 / interlaced=0 / bluray_compat=0 / constrained_intra=0 / bframes=8 / b_pyramid=2 / b_adapt=2 / b_bias=0 / direct=3 / weightb=1 / open_gop=0 / weightp=2 / keyint=240 / keyint_min=24 / scenecut=40 / intra_refresh=0 / rc=2pass / mbtree=0 / bitrate=3000 / ratetol=1.0 / qcomp=0.60 / qpmin=10 / qpmax=51 / qpstep=4 / cplxblur=20.0 / qblur=0.5 / ip_ratio=1.40 / pb_ratio=1.30 / aq=1:1.00
Language : English
Default : Yes
Forced : No

Audio #1
ID : 2
Format : AC-3
Format/Info : Audio Coding 3
Mode extension : CM (complete main)
Format settings, Endianness : Big
Codec ID : A_AC3
Duration : 2h 19mn
Bit rate mode : Constant
Bit rate : 640 Kbps
Channel(s) : 6 channels
Channel positions : Front: L C R, Side: L R, LFE
Sampling rate : 48.0 KHz
Bit depth : 16 bits
Compression mode : Lossy
Stream size : 639 MiB (11%)
Title : DUB - Blu-Ray RUS
Language : Russian
Default : Yes
Forced : No

Audio #2
ID : 3
Format : DTS
Format/Info : Digital Theater Systems
Mode : 16
Format settings, Endianness : Big
Codec ID : A_DTS
Duration : 2h 19mn
Bit rate mode : Constant
Bit rate : 755 Kbps
Channel(s) : 6 channels
Channel positions : Front: L C R, Side: L R, LFE
Sampling rate : 48.0 KHz
Bit depth : 24 bits
Compression mode : Lossy
Stream size : 753 MiB (13%)
Title : DUB - Blu-Ray RUS
Language : Russian
Default : No
Forced : No

Audio #3
ID : 4
Format : DTS
Format/Info : Digital Theater Systems
Mode : 16
Format settings, Endianness : Big
Codec ID : A_DTS
Duration : 2h 19mn
Bit rate mode : Constant
Bit rate : 1 510 Kbps
Channel(s) : 6 channels
Channel positions : Front: L C R, Side: L R, LFE
Sampling rate : 48.0 KHz
Bit depth : 24 bits
Compression mode : Lossy
Stream size : 1.47 GiB (26%)
Language : English
Default : No
Forced : No

Text #1
ID : 5
Format : UTF-8
Codec ID : S_TEXT/UTF8
Codec ID/Info : UTF-8 Plain Text
Language : Russian
Default : No
Forced : No

Text #2
ID : 6
Format : UTF-8
Codec ID : S_TEXT/UTF8
Codec ID/Info : UTF-8 Plain Text
Language : English
Default : No
Forced : No

Menu
00:00:00.000 : en:Chapter 01
00:00:04.000 : en:Chapter 02
00:15:32.708 : en:Chapter 03
00:33:57.916 : en:Chapter 04
00:51:47.083 : en:Chapter 05
01:06:32.125 : en:Chapter 06
01:25:05.166 : en:Chapter 07
01:46:17.041 : en:Chapter 08
01:57:51.666 : en:Chapter 09
Свернуть
"Скриншоты"
Изображение
Изображение
Изображение


Свернуть
_________________
Не ищите меня в "ВКонтакте", в "Одноклассниках" меня нет - я на трекерах сижу!
Не в сети
Профиль  
Начать новую темуОтветить на тему  [ 1 сообщение ] 
Вы не можете начинать темы
Вы не можете отвечать на сообщения
Вы не можете редактировать свои сообщения
Вы не можете удалять свои сообщения