Правила форума

  • В этом разделе создание новых тем Запрещено.
  • Для создания новых тем пользуйтесь Корневым разделом DVD и HD фильмы.
Начать новую темуОтветить на тему  [ Сообщений: 14 ] 
Торрент файл
Размер: 10.21 GB • Зарегистрирован: 2 года 4 месяца • Статус: Проверено
Скачан: 809 раз • Желающих скачать: 0 • Поблагодарили: 186 раз
 Раздают: 2  |  0 KB/s  ]   Качают: 0  |  0 KB/s  ] 
Сообщения
 Добавлено: 2014-07-23 13:25
Руководитель релиз-группы
Аватара пользователя
Стаж: 7 лет 2 месяца
Возраст: 4
Сообщений: 5213
Спасибок: 19350
Лайков: 2312
Дивергент / Divergent

Изображение


Год выпуска: 2014
Страна: США, Summit Entertainment, Red Wagon Entertainment
Жанр: Фантастика, боевик, приключения, экранизация
Продолжительность: 02:13:56
Перевод: Профессиональный (дубляж)

Режиссёр: Нил Бёргер
В ролях: Шэйлин Вудли, Тео Джеймс, Эшли Джадд, Джай Кортни, Рэй Стивенсон, Зои Кравиц, Майлз Теллер, Тони Голдуин, Мэгги Кью, Кейт Уинслет
Описание: Действие развивается на Земле в будущем, в деспотичном Чикаго. Все подростки, достигшие 16 лет, обязаны выбрать одну из пяти фракций и присоединиться к ней на всю оставшуюся жизнь. Каждая фракция представляет определенное качество: Искренность, Отречение, Бесстрашие, Дружелюбие и Эрудиция. Экранизация одноименного романа Вероники Рот.


Качество: BDRip (1080p)
Формат: Matroska
Видео кодек: MPEG-4 AVC
Аудио кодек: AC3 (Dolby Digital)
Видео: MPEG-4 AVC, 8571 Кбит/с, 1920x800, 23.976 кадр/с
Аудио #1: Русский (AC3, 6 ch, 384 Кбит/с), английский (DTS, 6 ch, 1536 Кбит/с) [Профессиональный (дубляж)]
Скриншоты
Изображение
Изображение
Изображение
Свернуть


MI
Формат: Matroska
Версия формата: Version 2
Размер файла: 10,2 Гбайт
Продолжительность: 2 ч. 19 м.
Общий поток: 10,5 Мбит / сек
Дата кодирования: UTC 2014-07-23 7:40:30
Программа кодирования: MKVMerge v6.4.1 ('Точка Омега ") построен на 16 сентября 2013 22:05:10
Библиотека кодирования: libebml v1.3.0 + libmatroska v1.4.1

Видео
Идентификатор: 1
Формат: AVC
Формат / Информация: Advanced Video Codec
Профиль формата: High@L4.1
Параметр CABAC формата: Да
Параметр меняет взгляды формата: 5 кадров
Идентификатор кодека: V_MPEG4/ISO/AVC
Продолжительность: 2 ч. 19 м.
Битрейт: 8571 Кбит / сек
Ширина: 1920 пикселей
Высота: 800 пикселей
Соотношение сторон: 2,40:1
Режим частоты кадров: Постоянный
Частота кадров: 23,976 кадра / сек
Цветовое пространство: YUV
Субдискретизация насыщенности: 4:02:00
Битовая глубина: 8 бит
Тип развёртки: Прогрессивная
Бит / (Пиксели * Кадры): 0.233
Размер потока: 8,16 Гбайт (80%)
Библиотека кодирования: x264 ядро ​​142 r2431 ac76440
Настройки программы: CABAC = 1 / реф = 5 / Деблокирующий = 1:00:00 / анализа = 0x3: 0x133 / я = UMH / subme = 7 / пси = 1 / psy_rd = 1.00:0.00 / mixed_ref = 1 / me_range = 16 / chroma_me = 1 / решетки = 1 / 8x8dct = 1 / CQM = 0 / мертвая зона = 21,11 / fast_pskip = 0 / chroma_qp_offset = -2 / темы = 18 / lookahead_threads = 3 / sliced_threads = 0 / № = 0 / уничтожить = 1 / чересстрочной = 0 / bluray_compat = 0 / constrained_intra = 0 / bframes = 3 / b_pyramid = 2 / b_adapt = 1 / b_bias = 0 / прямой = 1 / weightb = 1 / open_gop = 0 / weightp = 2 / keyint = 250 / keyint_min = 23 / scenecut = 40 / intra_refresh = 0 / rc_lookahead = 40 / RC = 2pass / mbtree = 1 / битрейт = 8571 / ratetol = 1,0 / qcomp = 0,60 / qpmin = 0 / qpmax = 69 / qpstep = 4 / cplxblur = 20.0 / qblur = 0,5 / ip_ratio = 1,40 / ая = 1:1.00
Язык: Английский
По умолчанию: Да
Принудительное: Нет

Аудио # 1
Идентификатор: 2
Формат: AC-3
Формат / Информация: Audio Coding 3
Расширение режима: CM (полный основной)
Параметр Порядок байтов формата: Большой
Идентификатор кодека: A_AC3
Продолжительность: 2 ч. 19 м.
Вид битрейта: Постоянный
Битрейт: 384 Кбит / сек
Каналы: 6 каналов
Расположение каналов: Front: LCR, Side: LR, LFE
Частота: 48,0 КГц
Битовая глубина: 16 бит
Метод сжатия: С потерями
Размер потока: 384 Мбайт (4%)
Заголовок: AC3
Язык: Русский
По умолчанию: Да
Принудительное: Нет

Аудио # 2
Идентификатор: 3
Формат: DTS
Формат / Информация: Digital Theater Systems
Идентификатор кодека: A_DTS
Продолжительность: 2 ч. 19 м.
Вид битрейта: Постоянный
Битрейт: 1510 Кбит / сек
Каналы: 6 каналов
Расположение каналов: Front: LCR, Side: LR, LFE
Частота: 48,0 КГц
Битовая глубина: 24 бит
Метод сжатия: С потерями
Размер потока: 1,47 Гбайт (14%)
Заголовок: DTS
Язык: Английский
По умолчанию: Нет
Принудительное: Нет

Текст # 1
Идентификатор: 4
Формат: UTF-8
Идентификатор кодека: S_TEXT/UTF8
Идентификатор кодека / Информация: UTF-8 Plain Text
Заголовок: Полный (notabenoid)
Язык: Русский
По умолчанию: Нет
Принудительное: Нет

Текст # 2
Идентификатор: 5
Формат: UTF-8
Идентификатор кодека: S_TEXT/UTF8
Идентификатор кодека / Информация: UTF-8 Plain Text
Заголовок: Полный
Язык: Английский
По умолчанию: Нет
Принудительное: Нет

Текст № 3
Идентификатор: 6
Формат: UTF-8
Идентификатор кодека: S_TEXT/UTF8
Идентификатор кодека / Информация: UTF-8 Plain Text
Заголовок: SDH
Язык: Английский
По умолчанию: Нет
Принудительное: Нет

Текст № 4
Идентификатор: 7
Формат: UTF-8
Идентификатор кодека: S_TEXT/UTF8
Идентификатор кодека / Информация: UTF-8 Plain Text
Заголовок: SDH цвета
Язык: Английский
По умолчанию: Нет
Принудительное: Нет

Меню
00:00:00.000: EN: 00:00:00.000
00:07:57.477: EN: 00:07:57.477
00:15:29.595: EN: 00:15:29.595
00:23:31.035: EN: 00:23:31.035
00:33:56.618: EN: 00:33:56.618
00:38:52.956: EN: 00:38:52.956
00:44:24.328: EN: 00:44:24.328
00:53:37.506: EN: 00:53:37.506
01:00:02.682: EN: 01:00:02.682
01:06:32.071: EN: 01:06:32.071
01:13:19.603: EN: 01:13:19.603
01:20:08.137: EN: 01:20:08.137
01:28:41.441: EN: 01:28:41.441
01:35:54.957: EN: 01:35:54.957
01:46:19.373: EN: 01:46:19.373
01:57:54.692: EN: 01:57:54.692
Свернуть
 IDclub нравится это.
Не в сети
Профиль  
 Добавлено: 2014-07-23 16:24 (спустя 2 часа 59 минут)
Стаж: 9 лет
Сообщений: 187
Спасибок: 77
Лайков: 1
Спасибо Друган !!!!
Не в сети
Профиль  
 Добавлено: 2014-07-23 18:21 (спустя 1 час 56 минут)
Стаж: 8 лет 1 месяц
Сообщений: 215
Лайков: 24
Чё, прикольный штоль?
Не в сети
Профиль  
 Добавлено: 2014-07-23 20:30 (спустя 2 часа 8 минут)
Стаж: 5 лет 10 месяцев
Сообщений: 14
мне понравился, спасибо! :a_g_a:
Не в сети
Профиль  
 Добавлено: 2014-07-24 20:44 (спустя 1 день)
Стаж: 6 лет 3 месяца
Сообщений: 26
Спасибок: 117
Одноразовый фильм
Не в сети
Профиль  
 Добавлено: 2014-07-25 09:27 (спустя 12 часов)
Стаж: 9 лет
Сообщений: 312
Спасибок: 347
Лайков: 9
Шняга полная, для детей 14и лет
 собак нравится это.
Не в сети
Профиль  
 Добавлено: 2014-07-25 20:21 (спустя 10 часов)
Стаж: 4 года 3 месяца
Сообщений: 2
Ну посмотреть можно вполне :)
Не в сети
Профиль  
 Добавлено: 2014-07-26 00:51 (спустя 4 часа)
Стаж: 5 лет 6 месяцев
Сообщений: 99
Лайков: 5
Дивергенты - особенные, а в чем особенные? а хз!
Трата времени...
 Sobakevic и собак нравится это.
Не в сети
Профиль  
 Добавлено: 2014-07-27 16:29 (спустя 1 день 15 часов)
Аватара пользователя
Стаж: 6 лет 1 месяц
Сообщений: 483
Спасибок: 5540
Норм фильм, можно разок глянуть :)
_________________
Изображение
Изображение100МБИзображение100МБ
Не в сети
Профиль  
 Добавлено: 2014-08-01 19:00 (спустя 5 дней)
Стаж: 5 лет 7 месяцев
Сообщений: 154
Лайков: 35
господи когда главная героиня ревет у нее целлюлит на лице вылазит где таких берут Ужас
 собак нравится это.
Не в сети
Профиль  
 Добавлено: 2014-08-17 17:05 (спустя 15 дней)
Стаж: 7 лет 4 месяца
Сообщений: 8
Не качайте это пресное "кино", не тратьте свое время! Фильм скучный и предсказуемый!
Не в сети
Профиль  
 Добавлено: 2014-08-20 21:49 (спустя 3 дня)
Аватара пользователя
Стаж: 7 лет 1 месяц
Возраст: 26
Сообщений: 51
Спасибок: 18
Лайков: 11
Скажем так, это "Голодные игры" только без игр :) Всё предсказуемо, нудно и сопли.....ну девушкам наверно понравится.
Не в сети
Профиль  
 Добавлено: 2014-08-25 00:22 (спустя 4 дня)
Стаж: 9 лет
Сообщений: 312
Спасибок: 347
Лайков: 9

WISHMASTER23:

Скажем так, это "Голодные игры" только без игр :) Всё предсказуемо, нудно и сопли.....ну девушкам наверно понравится.

Этой поделке (подделке) до Голодных игр, как до Марсе на автобусе
Не в сети
Профиль  
 Добавлено: 2015-01-21 21:26 (спустя 4 месяца 27 дней)
Стаж: 7 лет 11 месяцев
Сообщений: 2
Обалденный фильм для тех, кому 15-18 лет. Мне нравится, хоть и 34 года )
Не в сети
Профиль  
Начать новую темуОтветить на тему  [ Сообщений: 14 ] 
Вы не можете начинать темы
Вы не можете отвечать на сообщения
Вы не можете редактировать свои сообщения
Вы не можете удалять свои сообщения