Правила форума

  • В этом разделе создание новых тем Запрещено.
  • Для создания новых тем пользуйтесь Корневым разделом DVD и HD фильмы.
Начать новую темуОтветить на тему  [ 1 сообщение ] 
Торрент файл
Размер: 12.74 GB • Зарегистрирован: 4 года 7 месяцев • Статус: Проверено
Скачан: 148 раз • Желающих скачать: 0 • Поблагодарили: 28 раз
 Раздают: 0  |  0 KB/s  ]   Качают: 0  |  0 KB/s  ] 
 Полного источника не было 2 года 6 месяцев 
Сообщения
 Добавлено: 2012-04-13 13:23
Модератор релиз-группы
Аватара пользователя
Стаж: 9 лет 1 месяц
Возраст: 97
Сообщений: 11659
Спасибок: 6530
Лайков: 269
Дж. Эдгар / J. Edgar

Изображение


Год выпуска: 2011
Жанр: Драма, биография
Страна: США, Imagine Entertainment
Продолжительность: 02:16:54
Перевод: Профессиональный (полное дублирование) [лицензия]
Любительский одноголосый
Оригинальная звуковая дорожка
Субтитры: Русские, английские

Режиссер: Клинт Иствуд
В ролях: Леонардо ДиКаприо, Наоми Уоттс, Арми Хаммер, Кейтлин Девер, Дермот Малруни, Джош Лукас, Эд Вествик, Лиа Томпсон, Джуди Денч, Джеффри Донован

Описание: В течение всей жизни Джон Эдгар Гувер поднимался к вершинам власти, чтобы стать самым могущественным человеком в Америке. Будучи главой Федерального бюро расследований, он ни перед чем не останавливался, чтобы защитить свою страну. Пережив восемь президентов и три войны, Гувер вел сражения с угрозами как реальными, так и надуманными, зачастую нарушая правила, чтобы уберечь сограждан от опасности. Он был безжалостен и был героем, причем одновременно; мир восхищался им, что было для него самой желанной, пусть и не материальной, наградой. «Дж. Эдгар» глазами самого Гувера показывает нам его частную и общественную жизнь и отношения с окружающими человека, который мог с тем же успехом исказить правду, с каким он защищал ее в течение всей своей жизни, посвященной воплощению его собственной идеи справедливости, на которую часто влияла темная сторона власти.
Изображение
Качество: BDRip (1080p)
Видео: MPEG-4 AVC, 9925 Кбит/с, 1920x800, 23.976 кадр/с
Аудио 1: Русский AC3, 48 kHz, 6 ch, 384 kbps (лицензия)
Аудио 2: Русский DTS, 6 ch, 1536 Кбит/с
Аудио 3: Aнглийский DTS, 6 ch, 1536 Кбит/с
скриншоты
Изображение

Изображение

Изображение

Изображение
Свернуть
Mi
Format : Matroska
Format version : Version 2
File size : 12.7 GiB
Duration : 2h 16mn
Overall bit rate : 13.3 Mbps
Movie name : --SCHUMAHER--
Encoded date : UTC 2012-04-13 10:00:32
Writing application : mkvmerge v5.5.0 ('Healer') built on Apr 6 2012 21:43:24
Writing library : libebml v1.2.3 + libmatroska v1.3.0

Video
ID : 1
Format : AVC
Format/Info : Advanced Video Codec
Format profile : High@L4.1
Format settings, CABAC : Yes
Format settings, ReFrames : 4 frames
Codec ID : V_MPEG4/ISO/AVC
Duration : 2h 16mn
Bit rate : 9 925 Kbps
Width : 1 920 pixels
Height : 800 pixels
Display aspect ratio : 2.40:1
Frame rate : 23.976 fps
Color space : YUV
Chroma subsampling : 4:2:0
Bit depth : 8 bits
Scan type : Progressive
Bits/(Pixel*Frame) : 0.270
Stream size : 9.23 GiB (72%)
Writing library : x264 core 120 r2164 da19765
Encoding settings : cabac=1 / ref=4 / deblock=1:-3:-3 / analyse=0x3:0x113 / me=umh / subme=10 / psy=1 / psy_rd=1.10:0.00 / mixed_ref=1 / me_range=48 / chroma_me=1 / trellis=2 / 8x8dct=1 / cqm=0 / deadzone=21,11 / fast_pskip=0 / chroma_qp_offset=-4 / threads=36 / sliced_threads=0 / nr=0 / decimate=0 / interlaced=0 / bluray_compat=0 / constrained_intra=0 / bframes=8 / b_pyramid=2 / b_adapt=2 / b_bias=0 / direct=3 / weightb=1 / open_gop=0 / weightp=2 / keyint=250 / keyint_min=23 / scenecut=40 / intra_refresh=0 / rc_lookahead=60 / rc=2pass / mbtree=1 / bitrate=9925 / ratetol=1.0 / qcomp=0.60 / qpmin=0 / qpmax=69 / qpstep=4 / cplxblur=20.0 / qblur=0.5 / ip_ratio=1.40 / aq=1:0.80
Language : English
Default : Yes
Forced : Yes

Audio #1
ID : 2
Format : AC-3
Format/Info : Audio Coding 3
Mode extension : CM (complete main)
Codec ID : A_AC3
Duration : 2h 16mn
Bit rate mode : Constant
Bit rate : 384 Kbps
Channel(s) : 6 channels
Channel positions : Front: L C R, Side: L R, LFE
Sampling rate : 48.0 KHz
Bit depth : 16 bits
Compression mode : Lossy
Stream size : 376 MiB (3%)
Title : Dubbed
Language : Russian
Default : Yes
Forced : Yes

Audio #2
ID : 3
Format : DTS
Format/Info : Digital Theater Systems
Codec ID : A_DTS
Duration : 2h 16mn
Bit rate mode : Constant
Bit rate : 1 510 Kbps
Channel(s) : 6 channels
Channel positions : Front: L C R, Side: L R, LFE
Sampling rate : 48.0 KHz
Bit depth : 24 bits
Compression mode : Lossy
Stream size : 1.44 GiB (11%)
Title : VO
Language : Russian
Default : No
Forced : No

Audio #3
ID : 4
Format : DTS
Format/Info : Digital Theater Systems
Codec ID : A_DTS
Duration : 2h 16mn
Bit rate mode : Constant
Bit rate : 1 510 Kbps
Channel(s) : 6 channels
Channel positions : Front: L C R, Side: L R, LFE
Sampling rate : 48.0 KHz
Bit depth : 24 bits
Compression mode : Lossy
Stream size : 1.44 GiB (11%)
Title : Original
Language : English
Default : No
Forced : No

Text #1
ID : 5
Format : UTF-8
Codec ID : S_TEXT/UTF8
Codec ID/Info : UTF-8 Plain Text
Language : Russian
Default : No
Forced : No

Text #2
ID : 6
Format : UTF-8
Codec ID : S_TEXT/UTF8
Codec ID/Info : UTF-8 Plain Text
Language : English
Default : No
Forced : No

Text #3
ID : 7
Format : UTF-8
Codec ID : S_TEXT/UTF8
Codec ID/Info : UTF-8 Plain Text
Title : SDH
Language : English
Default : No
Forced : No

Menu
00:00:00.000 : en:
00:10:36.426 : en:
00:20:13.587 : en:
00:29:26.264 : en:
00:40:52.116 : en:
00:49:37.891 : en:
00:59:26.479 : en:
01:10:27.765 : en:
01:20:48.969 : en:
01:29:52.929 : en:
01:40:37.990 : en:
01:49:25.892 : en:
01:58:26.641 : en:
02:11:00.352 : en:
02:16:52.954 : en:


Свернуть
_________________
Изображение
Не в сети
Профиль  
Начать новую темуОтветить на тему  [ 1 сообщение ] 
Вы не можете начинать темы
Вы не можете отвечать на сообщения
Вы не можете редактировать свои сообщения
Вы не можете удалять свои сообщения