Правила форума

  • В этом разделе создание новых тем Запрещено.
  • Для создания новых тем пользуйтесь Корневым разделом DVD и HD фильмы.
Начать новую темуОтветить на тему  [ Сообщений: 4 ] 
Торрент файл
Размер: 9.84 GB • Зарегистрирован: 3 года 7 месяцев • Статус: Проверено
Скачан: 124 раза • Желающих скачать: 0 • Поблагодарили: 28 раз
 Раздают: 4  |  0 KB/s  ]   Качают: 0  |  0 KB/s  ] 
Сообщения
 Добавлено: 2013-04-16 21:59
Руководитель релиз-группы
Аватара пользователя
Стаж: 9 лет 1 месяц
Возраст: 28
Сообщений: 4244
Спасибок: 32001
Лайков: 32
Изображение
Джанго освобожденный / Django Unchained


«Они забрали его свободу. Он заберёт у них всё.»


Год выпуска | 2012
Страна | США
Жанр | драма ∙ вестерн ∙ комедия ∙ приключения
Продолжительность | 02:45:22
Перевод | Авторский (Сербин Юрий) ∙ Оригинальный ∙ Субтитры (русские, английские)
Режиссер | Квентин Тарантино
Сценарий | Квентин Тарантино
Продюсер | Реджинальд Хадлин ∙ Пилар Савон ∙ Стейси Шер ∙ Уильям Пол Кларк ∙ Шеннон МакИнтош
Оператор | Роберт Ричардсон

В ролях | Джейми Фокс (Django) ∙ Кристоф Вальц (Dr. King Schultz) ∙ Леонардо ДиКаприо (Calvin Candie) ∙ Керри Вашингтон (Broomhilda von Schaft) ∙ Сэмюэл Л. Джексон (Stephen) ∙ Уолтон Гоггинс (Billy Crash) ∙ Деннис Кристофер (Leonide Moguy) ∙ Джеймс Римар (Butch Pooch / Ace Speck) ∙ Дон Джонсон (Big Daddy) ∙ Франко Неро (Amerigo Vessepi) ∙ Майкл Паркс (The LeQuint Dickey Mining Co. Employee) ∙ Квентин Тарантино (The LeQuint Dickey Mining Co. Employee) и др.
Описание | Эксцентричный охотник за головами, также известный как «Дантист», промышляет отстрелом самых опасных преступников на Диком Западе. Работенка пыльная, и без надежного помощника ему не обойтись. Но как найти такого и желательно не очень дорогого? Беглый раб по имени Джанго – прекрасная кандидатура. Правда, у нового помощника свои мотивы – кое с чем надо разобраться...
Релиз | ИзображениеРаздача | Изображение

kinopoisk.ru | 8.638 (75 636)
Бюджет | $100 000 000
Сборы в США | $162 691 582
Сборы в России | $15 977 925
Сборы в мире | $419 191 582
Мировая премьера | 25 декабря 2012
Релиз на DVD | 28 мая 2013 ∙ «Columbia/Sony»
Релиз на Blu-Ray | 28 мая 2013 ∙ «Columbia/Sony»
Качество | BDRip 720p
Контейнер | Matroska
Видео | AVC ∙ 1280x534 (2.40:1) ∙ 5500 kbps ∙ 23.976 fps ∙ 0.336 bit/pixel
Аудио #1 | DTS ∙ 1510 kbps ∙ CBR ∙ 6 channels ∙ 24 bit /AVO/
Аудио #2 | DTS ∙ 1510 kbps ∙ CBR ∙ 6 channels ∙ 24 bit /ENG/

MediaInfo
General
Unique ID : 250987309099446018304926158616607251828 (0xBCD265BDAECBDAB08442AC14B88ADD74)
Complete name : I:\films\Django.Unchained.2012.BDRip.720p.mkv
Format : Matroska
Format version : Version 2
File size : 9.84 GiB
Duration : 2h 45mn
Overall bit rate : 8 521 Kbps
Movie name : Django Unchained (2012) - Release for HDCLUB by doclogan
Encoded date : UTC 2013-04-15 19:43:29
Writing application : mkvmerge v5.8.0 ('No Sleep / Pillow') built on Sep 2 2012 15:37:04
Writing library : libebml v1.2.3 + libmatroska v1.3.0

Video
ID : 1
Format : AVC
Format/Info : Advanced Video Codec
Format profile : High@L4.1
Format settings, CABAC : Yes
Format settings, ReFrames : 12 frames
Codec ID : V_MPEG4/ISO/AVC
Duration : 2h 45mn
Bit rate : 5 500 Kbps
Width : 1 280 pixels
Height : 534 pixels
Display aspect ratio : 2.40:1
Frame rate : 23.976 fps
Color space : YUV
Chroma subsampling : 4:2:0
Bit depth : 8 bits
Scan type : Progressive
Bits/(Pixel*Frame) : 0.336
Stream size : 6.16 GiB (63%)
Title : Release for HDCLUB by doclogan
Writing library : x264 core 130 r2273 b3065e6
Encoding settings : cabac=1 / ref=12 / deblock=1:-3:-3 / analyse=0x3:0x113 / me=umh / subme=10 / psy=1 / psy_rd=1.10:0.00 / mixed_ref=1 / me_range=32 / chroma_me=1 / trellis=2 / 8x8dct=1 / cqm=0 / deadzone=21,11 / fast_pskip=0 / chroma_qp_offset=-2 / threads=18 / lookahead_threads=3 / sliced_threads=0 / nr=0 / decimate=0 / interlaced=0 / bluray_compat=0 / constrained_intra=0 / bframes=8 / b_pyramid=2 / b_adapt=2 / b_bias=0 / direct=3 / weightb=1 / open_gop=0 / weightp=2 / keyint=240 / keyint_min=24 / scenecut=40 / intra_refresh=0 / rc=2pass / mbtree=0 / bitrate=5500 / ratetol=1.0 / qcomp=0.75 / qpmin=0 / qpmax=69 / qpstep=4 / cplxblur=20.0 / qblur=0.5 / ip_ratio=1.20 / pb_ratio=1.15 / aq=1:0.80
Language : English
Default : Yes
Forced : No

Audio #1
ID : 2
Format : DTS
Format/Info : Digital Theater Systems
Codec ID : A_DTS
Duration : 2h 45mn
Bit rate mode : Constant
Bit rate : 1 510 Kbps
Channel(s) : 6 channels
Channel positions : Front: L C R, Side: L R, LFE
Sampling rate : 48.0 KHz
Bit depth : 24 bits
Compression mode : Lossy
Stream size : 1.74 GiB (18%)
Title : DTS 5.1 @ 1.5 Mbps – Одноголосый закадровый (Ю.Сербин)
Language : Russian
Default : Yes
Forced : No

Audio #2
ID : 3
Format : DTS
Format/Info : Digital Theater Systems
Codec ID : A_DTS
Duration : 2h 45mn
Bit rate mode : Constant
Bit rate : 1 510 Kbps
Channel(s) : 6 channels
Channel positions : Front: L C R, Side: L R, LFE
Sampling rate : 48.0 KHz
Bit depth : 24 bits
Compression mode : Lossy
Stream size : 1.74 GiB (18%)
Title : DTS 5.1 @ 1.5 Mbps
Language : English
Default : No
Forced : No

Text #1
ID : 4
Format : UTF-8
Codec ID : S_TEXT/UTF8
Codec ID/Info : UTF-8 Plain Text
Title : romero007
Language : Russian
Default : No
Forced : No

Text #2
ID : 5
Format : UTF-8
Codec ID : S_TEXT/UTF8
Codec ID/Info : UTF-8 Plain Text
Language : English
Default : No
Forced : No

Menu
00:00:00.000 : en:00:00:00.000
00:03:36.466 : en:00:03:36.466
00:12:47.934 : en:00:12:47.934
00:18:49.420 : en:00:18:49.420
00:26:48.273 : en:00:26:48.273
00:31:44.528 : en:00:31:44.528
00:40:27.133 : en:00:40:27.133
00:46:05.513 : en:00:46:05.513
00:52:36.862 : en:00:52:36.862
00:58:12.823 : en:00:58:12.823
01:02:20.320 : en:01:02:20.320
01:12:13.496 : en:01:12:13.496
01:18:35.794 : en:01:18:35.794
01:26:08.038 : en:01:26:08.038
01:34:49.642 : en:01:34:49.642
01:40:52.380 : en:01:40:52.380
01:45:34.036 : en:01:45:34.036
01:50:01.094 : en:01:50:01.094
01:55:03.980 : en:01:55:03.980
02:03:54.969 : en:02:03:54.969
02:08:14.103 : en:02:08:14.103
02:14:14.380 : en:02:14:14.380
02:17:28.991 : en:02:17:28.991
02:22:32.544 : en:02:22:32.544
02:26:28.530 : en:02:26:28.530
02:33:00.463 : en:02:33:00.463
02:35:41.999 : en:02:35:41.999
02:41:30.931 : en:02:41:30.931
Свернуть

Скриншоты

Изображение

Изображение

Изображение
Свернуть
_________________
«you failed because you had the wrong dream...»
Не в сети
Профиль  
 Добавлено: 2013-04-18 00:00 (спустя 1 день 2 часа)
Аватара пользователя
Стаж: 8 лет 11 месяцев
Возраст: 30
Сообщений: 29
Когда будет чистый звук и 1080?
_________________
Изображение
Изображение
Не в сети
Профиль  
 Добавлено: 2013-04-18 00:50 (спустя 50 минут)
Аватара пользователя
Стаж: 4 года 8 месяцев
Сообщений: 138
:bra_vo: квентин,и конечно же куда ему без сэмуэля джексона :-D ,фильм просто крутяк :co_ol:
автору спс тык :a_g_a:
ах да и море крови в финальной сцене :ya_hoo_oo:
Не в сети
Профиль  
 Добавлено: 2013-09-13 20:17 (спустя 4 месяца 25 дней)
Аватара пользователя
Стаж: 3 года 2 месяца
Сообщений: 436
Спасибок: 1063
Лайков: 61

GSF:

Когда будет чистый звук и 1080?
Если интересно, могу залить версию 7.76 GB 1920x800 .mkv с двумя аудиодорогами Аудио 1: рус AC-3, 6 ch, 640 kbps и
ENG AC-3, 6 ch, 448 kbps
_________________
Изображение Изображение
╬ Хоть на ННпортале я недолго есть,
Уж достижений скромных виден блеск.
ИзображениеИзображениеИзображениеИзображениеИзображениеИзображениеИзображениеИзображениеИзображениеИзображение
Изображение
Свернуть
Не в сети
Профиль  
Начать новую темуОтветить на тему  [ Сообщений: 4 ] 
Вы не можете начинать темы
Вы не можете отвечать на сообщения
Вы не можете редактировать свои сообщения
Вы не можете удалять свои сообщения