Правила форума

  • В этом разделе создание новых тем Запрещено.
  • Для создания новых тем пользуйтесь Корневым разделом DVD и HD фильмы.
Начать новую темуОтветить на тему  [ Сообщений: 2 ] 
Торрент файл
Размер: 8.2 GB • Зарегистрирован: 4 года 1 месяц • Статус: Проверено
Скачан: 52 раза • Желающих скачать: 0 • Поблагодарили: 5 раз
 Раздают: 0  |  0 KB/s  ]   Качают: 0  |  0 KB/s  ] 
 Полного источника не было 3 года 2 месяца 
Сообщения
 Добавлено: 2012-11-03 01:15
Модератор
Аватара пользователя
Стаж: 8 лет 7 месяцев
Сообщений: 4965
Спасибок: 110254
Лайков: 18
Изображение

Джефф, живущий дома / Jeff, Who Lives at Home


Год выпуска: 2011
Страна: США
Слоган: «The first step to finding your destiny is leaving your mother's basement.»

Жанр: драма, комедия
Продолжительность: 01:23:01
Перевод: Профессиональный (многоголосый, закадровый)
Субтитры: Русские, украинские, английские, французские, испанские
Режиссер: Джей Дюпласс, Марк Дюпласс
Сценарий: Джей Дюпласс, Марк Дюпласс
Продюсер: Лайан Халфон, Джейсон Райтман, Расселл Смит, Боб Дорманн, Хелен Эстабрук
Оператор: Джас Шелтон
Композитор: Майкл Эндрюс

В ролях: Джейсон Сигел, Эд Хелмс, Сьюзен Сарандон, Джуди Грир, Рей Дон Чонг, Стив Зиссис, Ивэн Росс, Бенжамин Брант Бикхэм, Ли Нгуйен, Т. Джоэль Смит, Эрнест Джеймс, Дэвид Кенси
Бюджет: $10 000 000
Сборы в США: $4 269 426
Сборы в мире: $4 417 580

Мировая премьера: 14 сентября 2011
Релиз на DVD: 5 ноября 2012, «Новый Диск»
Релиз на Blu-ray: 5 ноября 2012, «Новый Диск»
Описание: Картина станет хроникой одного дня из жизни двух братьев - живущего дома лузера и его уравновешенного и властного родственника.
Изображение 6.6/10 (22,079 users) Изображение 6.897 (1,296)
MPAA: Изображение - Лицам до 17 лет обязательно присутствие взрослого
Релиз группы: Изображение
Раздача группы: Изображение
"NFO"
Format : Matroska
Format version : Version 2
File size : 8.20 GiB
Duration : 1h 23mn
Overall bit rate : 14.1 Mbps
Encoded date : UTC 2012-11-02 16:01:47
Writing application : mkvmerge v4.9.1 ('Ich will') built on Jul 11 2011 23:53:15
Writing library : libebml v1.2.1 + libmatroska v1.1.1

Video
ID : 1
Format : AVC
Format/Info : Advanced Video Codec
Format profile : High@L4.1
Format settings, CABAC : Yes
Format settings, ReFrames : 4 frames
Codec ID : V_MPEG4/ISO/AVC
Duration : 1h 23mn
Bit rate : 13.1 Mbps
Width : 1 920 pixels
Height : 1 080 pixels
Display aspect ratio : 16:9
Frame rate : 23.976 fps
Color space : YUV
Chroma subsampling : 4:2:0
Bit depth : 8 bits
Scan type : Progressive
Bits/(Pixel*Frame) : 0.263
Stream size : 7.41 GiB (90%)
Title : Jeff.Who.Lives.at.Home.2011.1080p.BluRay.DD5.1.x264-HiDt
Writing library : x264 core 125 r2200 999b753
Encoding settings : cabac=1 / ref=4 / deblock=1:-3:-3 / analyse=0x3:0x113 / me=umh / subme=11 / psy=1 / psy_rd=0.92:0.00 / mixed_ref=1 / me_range=64 / chroma_me=1 / trellis=2 / 8x8dct=1 / cqm=0 / deadzone=21,11 / fast_pskip=0 / chroma_qp_offset=-2 / threads=12 / lookahead_threads=2 / sliced_threads=0 / nr=0 / decimate=1 / interlaced=0 / bluray_compat=0 / constrained_intra=0 / bframes=8 / b_pyramid=2 / b_adapt=2 / b_bias=0 / direct=3 / weightb=1 / open_gop=0 / weightp=2 / keyint=240 / keyint_min=23 / scenecut=40 / intra_refresh=0 / rc=2pass / mbtree=0 / bitrate=13061 / ratetol=1.0 / qcomp=0.70 / qpmin=0 / qpmax=69 / qpstep=4 / cplxblur=20.0 / qblur=0.5 / ip_ratio=1.40 / pb_ratio=1.30 / aq=1:0.90 / zones=111070,119165,b=0.2
Language : English
Default : Yes
Forced : Yes

Audio #1
ID : 2
Format : AC-3
Format/Info : Audio Coding 3
Mode extension : CM (complete main)
Format settings, Endianness : Big
Codec ID : A_AC3
Duration : 1h 23mn
Bit rate mode : Constant
Bit rate : 448 Kbps
Channel(s) : 6 channels
Channel positions : Front: L C R, Side: L R, LFE
Sampling rate : 48.0 KHz
Bit depth : 16 bits
Compression mode : Lossy
Stream size : 266 MiB (3%)
Title : DD 5.1 @ 448 kbps - MVO, R5
Language : Russian
Default : Yes
Forced : Yes

Audio #2
ID : 3
Format : AC-3
Format/Info : Audio Coding 3
Mode extension : CM (complete main)
Format settings, Endianness : Big
Codec ID : A_AC3
Duration : 1h 23mn
Bit rate mode : Constant
Bit rate : 640 Kbps
Channel(s) : 6 channels
Channel positions : Front: L C R, Side: L R, LFE
Sampling rate : 48.0 KHz
Bit depth : 16 bits
Compression mode : Lossy
Stream size : 380 MiB (5%)
Title : DD 5.1 @ 640 kbps
Language : English
Default : No
Forced : No

Text #1
ID : 4
Format : UTF-8
Codec ID : S_TEXT/UTF8
Codec ID/Info : UTF-8 Plain Text
Title : R5
Language : Russian
Default : No
Forced : No

Text #2
ID : 5
Format : UTF-8
Codec ID : S_TEXT/UTF8
Codec ID/Info : UTF-8 Plain Text
Title : R5
Language : Ukrainian
Default : No
Forced : No

Text #3
ID : 6
Format : UTF-8
Codec ID : S_TEXT/UTF8
Codec ID/Info : UTF-8 Plain Text
Language : English
Default : No
Forced : No

Text #4
ID : 7
Format : UTF-8
Codec ID : S_TEXT/UTF8
Codec ID/Info : UTF-8 Plain Text
Language : French
Default : No
Forced : No

Text #5
ID : 8
Format : UTF-8
Codec ID : S_TEXT/UTF8
Codec ID/Info : UTF-8 Plain Text
Language : Spanish
Default : No
Forced : No

Menu
00:00:00.000 : en:Chapter 01
00:05:47.638 : en:Chapter 02
00:10:32.340 : en:Chapter 03
00:17:53.489 : en:Chapter 04
00:24:42.147 : en:Chapter 05
00:28:49.519 : en:Chapter 06
00:34:44.582 : en:Chapter 07
00:40:58.080 : en:Chapter 08
00:46:40.797 : en:Chapter 09
00:52:38.905 : en:Chapter 10
00:58:43.811 : en:Chapter 11
01:06:12.677 : en:Chapter 12
01:13:49.425 : en:Chapter 13
01:17:12.294 : en:Chapter 14
Свернуть

*Сохранены оригинальные чаптеры как на Blu-Ray
Качество: BDRip (1080p)
Формат: MKV

Видео: MPEG-4 AVC, 13100 Кбит/с, 1920x1080, 23.976 Кадр/с
Аудио №1: Russian, AC3, 6 ch, 448 Кбит/c
Аудио №2: English, AC3, 6 ch, 640 Кбит/c


"Скриншоты"

Изображение

Изображение

Изображение

Свернуть
_________________
Изображение Изображение Изображение
Билайн / АДС добавляйте ретрекер, чтобы качать на скорости 100 Мбит/с
Cкрытый текст
Изображение
Свернуть
Не в сети
Профиль  
 Добавлено: 2012-11-06 21:45 (спустя 3 дня)
Стаж: 7 лет 5 месяцев
Сообщений: 103
Лайков: 4
Замечательный фильм, закрывает ложный вопрос в философии, что первично, материя или дух..?! все взаимосвязано и взаимозависимо!!
Не в сети
Профиль  
Начать новую темуОтветить на тему  [ Сообщений: 2 ] 
Вы не можете начинать темы
Вы не можете отвечать на сообщения
Вы не можете редактировать свои сообщения
Вы не можете удалять свои сообщения