Правила форума

  • В этом разделе создание новых тем Запрещено.
  • Для создания новых тем пользуйтесь Корневым разделом DVD и HD фильмы.
Начать новую темуОтветить на тему  [ Сообщений: 2 ] 
Торрент файл
Размер: 9.42 GB • Зарегистрирован: 3 года 5 месяцев • Статус: Проверено
Скачан: 389 раз • Желающих скачать: 0 • Поблагодарили: 113 раз
 Раздают: 0  |  0 KB/s  ]   Качают: 0  |  0 KB/s  ] 
 Полного источника не было 1 месяц 2 дня 
Сообщения
 Добавлено: 2013-06-18 21:24
Аватара пользователя
Стаж: 9 лет 1 месяц
Сообщений: 7940
Спасибок: 122158
Лайков: 1191
Джек – покоритель великанов / Jack The Giant Slayer

«If you think you know the story, you don't know Jack.»

Изображение


Год выпуска: 2013
Страна: Изображение США
Жанр: фэнтези, приключения
Продолжительность: 01:54:20
Субтитры: Русские, английские
Перевод: Профессиональный (полное дублирование) [Лицензия]


Режиссёр: Брайан Сингер
Сценарист: Даррен Лемке, Кристофер МакКуорри, Дэн Стадни
Продюсер: Дэвид Добкин, Ори Мармур, Патрик МакКормик
Оператор: Ньютон Томас Сигел
Композитор: Джон Оттмен

В ролях: Николас Холт, Элинор Томлинсон, Юэн МакГрегор, Стэнли Туччи, Эдди Марсан, Юэн Бремнер, Иэн МакШейн, Кристофер Фэйрбэнк, Саймон Лоу, Мингус Джонстон

Описание: История начинается с похищения принцессы, что грозит нарушить хрупкий мир между людьми и великанами. Юный фермер возглавляет вылазку в царство гигантов в надежде спасти девушку.

Изображение Изображение

Релиз группы: Изображение Раздача группы: Изображение

Качество: BDRip (1080p)
Формат: Matroska
Видео: MPEG-4 AVC, 9.0 Мбит/с, 1920x800
Аудио №1: Русский (AC3, 48,0 КГц, 6 ch, 640 Кбит/c)
Аудио №2: Украинский (AC3, 48,0 КГц, 6 ch, 640 Кбит/c)
Аудио №3: Английский (DTS, 48,0 КГц, 6 ch, 1510 Кбит/c)

MediaInfo
Общее
Уникальный идентификатор : 252034481792396165259948871331676823742 (0xBD9C1357422F290E9D4455F6C97220BE)
Полное имя : C:\Фильмы\Jack.the.Giant.Slayer.2013.1080p.BluRay.Rus.Ukr.Eng.R.G.Daredevil.mkv
Формат : Matroska
Версия формата : Version 2
Размер файла : 9,42 Гбайт
Продолжительность : 1 ч. 54 м.
Общий поток : 11,8 Мбит/сек
Название фильма : IRONCLUB
Дата кодирования : UTC 2013-06-18 15:25:15
Программа кодирования : mkvmerge v5.2.0 ('I can't explain') built on Dec 18 2011 18:12:03
Библиотека кодирования : libebml v1.2.3 + libmatroska v1.3.0
Attachment : Yes / Yes / Yes

Видео
Идентификатор : 1
Формат : AVC
Формат/Информация : Advanced Video Codec
Профиль формата : High@L4.1
Параметр CABAC формата : Да
Параметр ReFrames формата : 5 кадров
Идентификатор кодека : V_MPEG4/ISO/AVC
Продолжительность : 1 ч. 54 м.
Битрейт : 9000 Кбит/сек
Ширина : 1920 пикселей
Высота : 800 пикселей
Соотношение сторон : 2,40:1
Режим частоты кадров : Постоянный
Частота кадров : 23,976 кадра/сек
Цветовое пространство : YUV
Субдискретизация насыщенности : 4:2:0
Битовая глубина : 8 бит
Тип развёртки : Прогрессивная
Бит/(Пиксели*Кадры) : 0.244
Размер потока : 7,00 Гбайт (74%)
Заголовок : Jack the Giant Slayer 2013 1080p BluRay DTS x264-DON
Библиотека кодирования : x264 core 116 r2057 0ba8a9c
Настройки программы : cabac=1 / ref=5 / deblock=1:-3:-3 / analyse=0x3:0x133 / me=umh / subme=11 / psy=1 / psy_rd=1.05:0.00 / mixed_ref=1 / me_range=32 / chroma_me=1 / trellis=2 / 8x8dct=1 / cqm=0 / deadzone=21,11 / fast_pskip=0 / chroma_qp_offset=-2 / threads=14 / sliced_threads=0 / nr=0 / decimate=0 / interlaced=0 / bluray_compat=0 / constrained_intra=0 / bframes=7 / b_pyramid=2 / b_adapt=2 / b_bias=0 / direct=3 / weightb=1 / open_gop=0 / weightp=2 / keyint=250 / keyint_min=23 / scenecut=40 / intra_refresh=0 / rc_lookahead=40 / rc=2pass / mbtree=0 / bitrate=9000 / ratetol=1.0 / qcomp=0.50 / qpmin=0 / qpmax=40 / qpstep=4 / cplxblur=20.0 / qblur=0.5 / vbv_maxrate=50000 / vbv_bufsize=50000 / nal_hrd=none / ip_ratio=1.25 / pb_ratio=1.25 / aq=1:0.80
Язык : English
Default : Да
Forced : Да

Аудио #1
Идентификатор : 2
Формат : AC-3
Формат/Информация : Audio Coding 3
Расширение режима : CM (complete main)
Параметр Endianness формата : Big
Идентификатор кодека : A_AC3
Продолжительность : 1 ч. 54 м.
Вид битрейта : Постоянный
Битрейт : 640 Кбит/сек
Каналы : 6 каналов
Расположение каналов : Front: L C R, Side: L R, LFE
Частота : 48,0 КГц
Битовая глубина : 16 бит
Метод сжатия : С потерями
Размер потока : 524 Мбайт (5%)
Заголовок : DD 5.1 @ 640 kbps - Dub, BD CEE
Язык : Russian
Default : Да
Forced : Да

Аудио #2
Идентификатор : 3
Формат : AC-3
Формат/Информация : Audio Coding 3
Расширение режима : CM (complete main)
Параметр Endianness формата : Big
Идентификатор кодека : A_AC3
Продолжительность : 1 ч. 54 м.
Вид битрейта : Постоянный
Битрейт : 640 Кбит/сек
Каналы : 6 каналов
Расположение каналов : Front: L C R, Side: L R, LFE
Частота : 48,0 КГц
Битовая глубина : 16 бит
Метод сжатия : С потерями
Размер потока : 524 Мбайт (5%)
Заголовок : DD 5.1 @ 640 kbps - Dub, BD CEE
Язык : Ukrainian
Default : Нет
Forced : Нет

Аудио #3
Идентификатор : 4
Формат : DTS
Формат/Информация : Digital Theater Systems
Режим : 16
Параметр Endianness формата : Big
Идентификатор кодека : A_DTS
Продолжительность : 1 ч. 54 м.
Вид битрейта : Постоянный
Битрейт : 1509 Кбит/сек
Каналы : 6 каналов
Расположение каналов : Front: L C R, Side: L R, LFE
Частота : 48,0 КГц
Битовая глубина : 24 бит
Метод сжатия : С потерями
Размер потока : 1,21 Гбайт (13%)
Заголовок : DTS 5.1 @ 1536 kbps
Язык : English
Default : Нет
Forced : Нет

Текст #1
Идентификатор : 5
Формат : UTF-8
Идентификатор кодека : S_TEXT/UTF8
Идентификатор кодека/Информация : UTF-8 Plain Text
Заголовок : Forced
Язык : Russian
Default : Да
Forced : Да

Текст #2
Идентификатор : 6
Формат : UTF-8
Идентификатор кодека : S_TEXT/UTF8
Идентификатор кодека/Информация : UTF-8 Plain Text
Заголовок : CEE
Язык : Russian
Default : Нет
Forced : Нет

Текст #3
Идентификатор : 7
Формат : ASS
Идентификатор кодека : S_TEXT/ASS
Идентификатор кодека/Информация : Advanced Sub Station Alpha
Метод сжатия : Без потерь
Язык : English
Default : Нет
Forced : Нет

Текст #4
Идентификатор : 8
Формат : ASS
Идентификатор кодека : S_TEXT/ASS
Идентификатор кодека/Информация : Advanced Sub Station Alpha
Метод сжатия : Без потерь
Заголовок : SDH
Язык : English
Default : Нет
Forced : Нет

Меню
00:00:00.000 : en:00:00:00.000
00:10:21.370 : en:00:10:21.370
00:19:23.745 : en:00:19:23.745
00:29:52.207 : en:00:29:52.207
00:38:55.374 : en:00:38:55.374
00:49:24.878 : en:00:49:24.878
00:59:35.488 : en:00:59:35.488
01:09:26.287 : en:01:09:26.287
01:20:39.167 : en:01:20:39.167
01:29:51.302 : en:01:29:51.302
01:39:02.811 : en:01:39:02.811
01:45:57.726 : en:01:45:57.726
Свернуть
Знаете ли вы, что...
В фильме есть некоторые намеки на библейскую историю Давида. Давид, как и Джек, убил великана, а затем женился на дочери короля, чтобы самому стать королем. Давид убил Голиафа, используя пращу. А в фильме один из великанов стреляет по городу камнями из рогатки.

Персонаж Юэна МакГрегора говорит, что у него плохое предчувствие. Эту же фразу дважды произносит его персонаж из «Звездных войн» Оби-Ван Кеноби. Уорвик Дэвис и Ральф Браун также снимались вместе с ним в «Звездные войны: Эпизод 1 — Скрытая угроза» (1999).

Во время боя с Родериком Элмонт три раза роняет кинжал Джека, но при этом поднимает его только один раз. В первый раз — когда он падает на гигантскую статую (он не поднимает его), второй — когда клинок выбивают из его рук (позже он подбирает его ртом), в третий раз — когда лезвие пронзает Родерика. Не показывают, как между первым и вторым разом кинжал попадает в руки Элмонта.

Свернуть
Скриншоты
Изображение
Изображение
Изображение
Изображение
Свернуть
Не в сети
Профиль  
 Добавлено: 2014-09-17 09:39 (спустя 1 год 2 месяца)
Аватара пользователя
Стаж: 8 лет 1 месяц
Сообщений: 121
Лайков: 2
Встаньте на раздачу кто-нибудь
Не в сети
Профиль  
Начать новую темуОтветить на тему  [ Сообщений: 2 ] 
Вы не можете начинать темы
Вы не можете отвечать на сообщения
Вы не можете редактировать свои сообщения
Вы не можете удалять свои сообщения