Правила форума

  • В этом разделе создание новых тем Запрещено.
  • Для создания новых тем пользуйтесь Корневым разделом DVD и HD фильмы.
Начать новую темуОтветить на тему  [ Сообщений: 7 ] 
Торрент файл
Размер: 8.99 GB • Зарегистрирован: 2 года 6 месяцев • Статус: Проверено
Скачан: 293 раза • Желающих скачать: 0 • Поблагодарили: 110 раз
 Раздают: 1  |  0 KB/s  ]   Качают: 0  |  0 KB/s  ] 
Сообщения
 Добавлено: 2014-05-13 03:13
Аватара пользователя
Стаж: 9 лет 1 месяц
Сообщений: 7929
Спасибок: 122128
Лайков: 1191
Джек Райан: Теория хаоса / Jack Ryan: Shadow Recruit

«Главное оружие – интеллект»

Изображение


Год выпуска: 2014
Страна: Изображение США Изображение Россия
Жанр: боевик, триллер, детектив
Продолжительность: 01:45:32
Перевод: Профессиональный (полное дублирование) [Лицензия]


Режиссер: Кеннет Брана
Сценарий: Адам Козад, Дэвид Кепп, Том Клэнси
Продюсер: Дэвид Баррон, Лоренцо Ди Бонавентура, Мэйс Нойфельд
Оператор: Харис Замбарлукос
Композитор: Патрик Дойл

В ролях: Крис Пайн, Кира Найтли, Кевин Костнер, Кеннет Брана, Колм Фиор, Джемма Чан, Нонсо Анози, Карен Дэвид, Дэвид Пэймер, Ханна Тейлор-Гордон

Описание: Рядовой аналитик ЦРУ Джек Райан приезжает в Москву, чтобы решить простую задачу: ему нужно проверить операции компании, принадлежащей миллиардеру Виктору Черевину. Но все усложняется, когда Райана пытаются убить. Теперь он вынужден защищаться с оружием в руках, вспоминая армейские навыки и неожиданно для себя оказываясь в роли настоящего спецагента. На помощь Джеку приходят маститый офицер спецслужб Харпер и внезапно оказавшаяся в Москве супруга Кэти. Но облегчит ли это миссию, которую теперь предстоит выполнить Райану, — предотвратить международный заговор, грозящий погрузить весь мир в хаос?

Изображение Изображение

Раздача группы: Изображение

Качество: BDRip (1080p)
Формат: Matroska
Видео: MPEG-4 AVC, 10308 Кбит/с, 1920x804
Аудио №1: Русский (AC3, 48,0 КГц, 6 ch, 384 Кбит/c)
Аудио №2: Английский (DTS, 48,0 КГц, 6 ch, 1510 Кбит/c)

MediaInfo
Общее
Уникальный идентификатор : 183599382810930824804840766876132670145 (0x8A1FF47527EF94698B80167DA9DD7AC1)
Полное имя : C:\Фильмы\Jack.Ryan.Shadow.Recruit.2014.BDRip.1080p.mkv
Формат : Matroska
Версия формата : Version 2
Размер файла : 8,99 Гбайт
Продолжительность : 1 ч. 45 м.
Общий поток : 12,2 Мбит/сек
Дата кодирования : UTC 2014-05-12 23:23:28
Программа кодирования : mkvmerge v5.7.0 ('The Whirlwind') built on Jul 29 2012 15:12:35
Библиотека кодирования : libebml v1.2.3 + libmatroska v1.3.0

Видео
Идентификатор : 1
Формат : AVC
Формат/Информация : Advanced Video Codec
Профиль формата : High@L4.1
Параметр CABAC формата : Да
Параметр ReFrames формата : 5 кадров
Идентификатор кодека : V_MPEG4/ISO/AVC
Продолжительность : 1 ч. 45 м.
Битрейт : 10,3 Мбит/сек
Ширина : 1920 пикселей
Высота : 804 пикселя
Соотношение сторон : 2,40:1
Режим частоты кадров : Постоянный
Частота кадров : 23,976 кадра/сек
Цветовое пространство : YUV
Субдискретизация насыщенности : 4:2:0
Битовая глубина : 8 бит
Тип развёртки : Прогрессивная
Бит/(Пиксели*Кадры) : 0.279
Размер потока : 7,41 Гбайт (82%)
Библиотека кодирования : x264 core 138 r2356 a1d3d17
Настройки программы : cabac=1 / ref=5 / deblock=1:-3:-3 / analyse=0x3:0x113 / me=umh / subme=10 / psy=1 / psy_rd=1.00:0.05 / mixed_ref=1 / me_range=32 / chroma_me=1 / trellis=2 / 8x8dct=1 / cqm=0 / deadzone=21,11 / fast_pskip=0 / chroma_qp_offset=-2 / threads=18 / lookahead_threads=1 / sliced_threads=0 / nr=0 / decimate=1 / interlaced=0 / bluray_compat=0 / constrained_intra=0 / bframes=4 / b_pyramid=2 / b_adapt=2 / b_bias=0 / direct=3 / weightb=1 / open_gop=0 / weightp=2 / keyint=250 / keyint_min=23 / scenecut=40 / intra_refresh=0 / rc=2pass / mbtree=0 / bitrate=10308 / ratetol=1.0 / qcomp=0.70 / qpmin=0 / qpmax=69 / qpstep=4 / cplxblur=20.0 / qblur=0.5 / ip_ratio=1.40 / pb_ratio=1.30 / aq=2:1.00
Язык : English
Default : Да
Forced : Нет

Аудио #1
Идентификатор : 2
Формат : AC-3
Формат/Информация : Audio Coding 3
Расширение режима : CM (complete main)
Параметр Endianness формата : Big
Идентификатор кодека : A_AC3
Продолжительность : 1 ч. 45 м.
Вид битрейта : Постоянный
Битрейт : 384 Кбит/сек
Каналы : 6 каналов
Расположение каналов : Front: L C R, Side: L R, LFE
Частота : 48,0 КГц
Битовая глубина : 16 бит
Метод сжатия : С потерями
Размер потока : 290 Мбайт (3%)
Язык : Russian
Default : Да
Forced : Да

Аудио #2
Идентификатор : 3
Формат : DTS
Формат/Информация : Digital Theater Systems
Режим : 16
Параметр Endianness формата : Big
Идентификатор кодека : A_DTS
Продолжительность : 1 ч. 45 м.
Вид битрейта : Постоянный
Битрейт : 1509 Кбит/сек
Каналы : 6 каналов
Расположение каналов : Front: L C R, Side: L R, LFE
Частота : 48,0 КГц
Битовая глубина : 24 бит
Метод сжатия : С потерями
Размер потока : 1,11 Гбайт (12%)
Язык : English
Default : Нет
Forced : Нет

Текст #1
Идентификатор : 4
Формат : UTF-8
Идентификатор кодека : S_TEXT/UTF8
Идентификатор кодека/Информация : UTF-8 Plain Text
Язык : English
Default : Нет
Forced : Нет

Текст #2
Идентификатор : 5
Формат : UTF-8
Идентификатор кодека : S_TEXT/UTF8
Идентификатор кодека/Информация : UTF-8 Plain Text
Заголовок : SDH
Язык : English
Default : Нет
Forced : Нет
Свернуть
Знаете ли вы, что...
Автор литературного мира Джека Райана американский писатель Том Клэнси. Первый роман датирован 1984 г., последний — о сыне Джеке Райане младшем 2010 г.

Крис Пайн сказал, что самым сложным в его роли было сделать Джека Райана захватывающим персонажем, потому что в отличие от Джейсона Борна или Джеймса Бонда лучшее оружие Райана — это его ум.

Крис Пайн сыграл с предыдущим Джеком Райаном, Беном Аффлеком, в фильме «Козырные тузы» (2006). Аффлек, в свою очередь, снимался с одним из своих предшественников, Алеком Болдуином, в фильме «Перл Харбор» (2001), а Болдуин со своим последователем Харрисоном Фордом — в фильме «Деловая женщина» (1988). Помимо этого, Пайн и Болдуин вместе работали в фильме «Хранители снов» (2012).

На роль Кэти Райан, жены Джека Райана, доставшуюся Кире Найтли, рассматривались также Фелисити Джонс, Эванджелин Лилли, Кейт Бекинсейл и Джессика Бил.

Часть съемок проходила в Москве на киностудии «Мосфильм» и в центре столицы (у храма Христа Спасителя, Кремля, Кремлевской набережной, на Большом Каменном и Патриаршем мостах).

Первоначально режиссером фильма был Джек Бендер, но из-за обязательств по работе над другим проектом он был заменен Кеннетом Браной.

Кевин Костнер фактически был первым актером, которому предложили роль Джека Райана в фильме «Охота за «Красным Октябрем»» (1990), но он отказался, чтобы сняться в фильме «Танцующий с волками» (1990). Кстати, именно в фильме «Охота за «Красным Октябрем»» (1990) впервые появился персонаж Джек Райан.

Ранее Кеннет Брана исполнял роли британских, немецких, австралийских и американских персонажей. В этом фильме он впервые сыграл русского.

У Колма Фиора была роль второго плана в фильме «Цена страха» (2002), который является предыдущим перезапуском франшизы о Джеке Райане с Беном Аффлеком в главной роли.

Во время съемок сцен борьбы Крис Пайн сломал себе палец.

В рамках подготовки к съемкам фильма режиссер Кеннет Брана прочитал все книги Тома Клэнси о Джеке Райане и посмотрел все фильмы об этом персонаже.

Около 80 процентов фильма было снято на пленку, а остальные 20 на цифру.

Цифровые съемки проходили с использованием камеры фирмы Red.

Большая часть фильма снималась в Лондоне. Некоторые сцены снимались в Ливерпуле и Нью-Йорке.
Первоначально сценарий Адама Козада назывался «Дубай» и должен был стать экшен-фильмом с Эриком Бана. Однако студия Paramount попросила Козада переписать сценарий и изменить главного героя на Джека Райана.

В российском кинотеатральном прокате из фильма было вырезано несколько сцен, которые прокатчик посчитал оскорбительными для российского зрителя.

Свернуть
Скриншоты
Изображение
Изображение
Изображение
Изображение
Свернуть
 sashannov нравится это.
В сети
Профиль  
 Добавлено: 2014-05-19 19:36 (спустя 6 дней)
Стаж: 6 лет 8 месяцев
Сообщений: 13
звук полное г...
Не в сети
Профиль  
 Добавлено: 2014-05-24 13:31 (спустя 4 дня)
Аватара пользователя
Стаж: 8 лет 7 месяцев
Возраст: 24
Сообщений: 160
Спасибок: 857

vershinin:

звук полное г...
что с ним? ввел в сомнения качать или нет)
Не в сети
Профиль  
 Добавлено: 2014-05-24 21:33 (спустя 8 часов)
Аватара пользователя
Стаж: 5 лет 6 месяцев
Сообщений: 42
Лайков: 5
Качай, пока качается)
Не в сети
Профиль  
 Добавлено: 2014-06-03 12:03 (спустя 9 дней)
Аватара пользователя
Стаж: 7 лет 11 месяцев
Сообщений: 10
Спасибок: 1
Очередная америкосовская тупая и глупая и еще раз глупая хрень.Но если не вдаваться в подробности, то разок одним глазком можно глянуть.
Не в сети
Профиль  
 Добавлено: 2014-06-18 15:30 (спустя 15 дней)
Аватара пользователя
Стаж: 8 лет 10 месяцев
Возраст: 26
Сообщений: 31

vershinin:

звук полное г...
что там со звуком можно узнать, стою на грани выбора качать или не качать.....
Не в сети
Профиль  
 Добавлено: 2014-06-18 16:33 (спустя 1 час 2 минуты)
Стаж: 6 лет 8 месяцев
Сообщений: 13
качай а там видно будет но я так и не мог досмотреть с этим звуком тихо а пребовляешь потом орет
Не в сети
Профиль  
Начать новую темуОтветить на тему  [ Сообщений: 7 ] 
Вы не можете начинать темы
Вы не можете отвечать на сообщения
Вы не можете редактировать свои сообщения
Вы не можете удалять свои сообщения