Правила форума

  • В этом разделе создание новых тем Запрещено.
  • Для создания новых тем пользуйтесь Корневым разделом DVD и HD фильмы.
Начать новую темуОтветить на тему  [ Сообщений: 6 ] 
Торрент файл
Размер: 17.99 GB • Зарегистрирован: 3 года 7 месяцев • Статус: Проверено
Скачан: 507 раз • Желающих скачать: 0 • Поблагодарили: 127 раз
 Раздают: 0  |  0 KB/s  ]   Качают: 0  |  0 KB/s  ] 
 Полного источника не было 44 минуты 
Сообщения
 Добавлено: 2013-04-20 10:38
Top-releaser
Аватара пользователя
Стаж: 8 лет 9 месяцев
Сообщений: 479
Спасибок: 20190
Лайков: 16
Изображение

Джек Ричер

Jack Reacher


«У закона есть пределы. У него их нет»

Год выпуска: 2012
Страна: Изображение США; Mutual Film Company, Paramount Pictures, Skydance Productions
Жанр: Боевик, триллер, криминал, детектив
Продолжительность: 02:10:24
Перевод: Профессиональный (дублированный) , Оригинал
Субтитры: Английские

Режиссёр: Кристофер МакКуорри / Christopher McQuarrie

В ролях: Том Круз, Розамунд Пайк, Ричард Дженкинс, Вернер Херцог, Дэвид Ойелоуо, Роберт Дюваль, Джей Кортни, Владимир Сизов, Джозеф Сикора, Майкл Рэймонд-Джеймс

Описание: Снайпер убивает пять случайных прохожих, но все улики указывают на человека, заключенного под стражу. На допросе подозреваемый умоляет об одном — найти Джека Ричера.


Качество: BDRip 1080p
Формат: MKV

Видео: 1920x816 at 23.976 fps, x264@L4.1, ~15.6 Mbps avg

Аудио 1: 48 kHz, DTS, 3/2 (L,C,R,l,r) + LFE ch, ~1536.00 kbps avg [Дубляж]
Аудио 2: 48 kHz, DTS, 3/2 (L,C,R,l,r) + LFE ch, ~1536.00 kbps avg [Оригинал]
Аудио 3: 48 kHz, AC3, 3/2 (L,C,R,l,r) + LFE ch, ~640.00 kbps avg [Descriptive]
Аудио 4: 48 kHz, AC3, 2/0 (L,R) ch, ~224.00 kbps avg [Commentary by Tom Cruise and Director Christopher McQuarrie]
Аудио 5: 48 kHz, AC3, 2/0 (L,R) ch, ~224.00 kbps avg [Commentary by Composer Joe Kraemer]
Релиз : Изображение Раздача: Изображение

Изображение

Изображение
MediaInfo

Общее
Уникальный идентификатор : 179263289187834131565754986169307717634 (0x86DCDA894E472E0EBD2C0639557F6002)
Полное имя : C:\Users\Домашний\Desktop\Jack.Reacher.2012.1080p.[nntt].mkv
Формат : Matroska
Версия формата : Version 2
Размер файла : 18,0 Гбайт
Продолжительность : 2 ч. 10 м.
Общий поток : 19,7 Мбит/сек
Название фильма : Jack Reacher (2012) - Release for HDCLUB
Дата кодирования : UTC 2013-04-19 20:33:53
Программа кодирования : mkvmerge v3.4.0 ('Rapunzel') built on May 15 2010 09:38:20
Библиотека кодирования : libebml v0.8.0 + libmatroska v0.9.0

Видео
Идентификатор : 1
Формат : AVC
Формат/Информация : Advanced Video Codec
Профиль формата : High@L4.1
Параметр CABAC формата : Да
Параметр ReFrames формата : 5 кадров
Идентификатор кодека : V_MPEG4/ISO/AVC
Продолжительность : 2 ч. 10 м.
Битрейт : 15,2 Мбит/сек
Ширина : 1920 пикселей
Высота : 816 пикселей
Соотношение сторон : 2,35:1
Режим частоты кадров : Постоянный
Частота кадров : 23,976 кадра/сек
Цветовое пространство : YUV
Субдискретизация насыщенности : 4:2:0
Битовая глубина : 8 бит
Тип развёртки : Прогрессивная
Бит/(Пиксели*Кадры) : 0.406
Размер потока : 13,9 Гбайт (77%)
Заголовок : Jack Reacher (2012) - Release for HDCLUB
Библиотека кодирования : x264 core 130 r2274+704+40 24c804d tMod+MixAQ [8-bit@4:2:0 X86_64]
Настройки программы : cabac=1 / ref=5 / deblock=1:-3:-3 / analyse=0x3:0x113 / me=umh / subme=11 / psy=1 / fade_compensate=0.00 / psy_rd=0.80:0.00 / mixed_ref=1 / me_range=48 / chroma_me=1 / trellis=2 / 8x8dct=1 / cqm=0 / deadzone=21,11 / fast_pskip=0 / chroma_qp_offset=-2 / threads=18 / lookahead_threads=3 / sliced_threads=0 / nr=0 / decimate=0 / interlaced=0 / bluray_compat=0 / constrained_intra=0 / fgo=0 / bframes=8 / b_pyramid=2 / b_adapt=2 / b_bias=0 / direct=3 / weightb=1 / open_gop=0 / weightp=2 / keyint=240 / keyint_min=24 / scenecut=40 / intra_refresh=0 / rc_lookahead=240 / rc=crf / mbtree=1 / crf=17.3000 / qcomp=0.70 / qpmin=0 / qpmax=69 / qpstep=4 / ip_ratio=1.10 / aq=4:0.85 / aq-sensitivity=10.00 / aq-ifactor=1.00 / aq-pfactor=1.00 / aq-bfactor=1.00 / aq2=0
Язык : English
Default : Да
Forced : Нет

Аудио #1
Идентификатор : 2
Формат : DTS
Формат/Информация : Digital Theater Systems
Режим : 16
Параметр Endianness формата : Big
Идентификатор кодека : A_DTS
Продолжительность : 2 ч. 10 м.
Вид битрейта : Постоянный
Битрейт : 1509 Кбит/сек
Каналы : 6 каналов
Расположение каналов : Front: L C R, Side: L R, LFE
Частота : 48,0 КГц
Битовая глубина : 24 бит
Метод сжатия : С потерями
Размер потока : 1,37 Гбайт (8%)
Заголовок : DTS 5.1 @ 1536 kbps - DUB, Paramount Pictures
Язык : Russian
Default : Да
Forced : Нет

Аудио #2
Идентификатор : 3
Формат : DTS
Формат/Информация : Digital Theater Systems
Режим : 16
Параметр Endianness формата : Big
Идентификатор кодека : A_DTS
Продолжительность : 2 ч. 10 м.
Вид битрейта : Постоянный
Битрейт : 1509 Кбит/сек
Каналы : 6 каналов
Расположение каналов : Front: L C R, Side: L R, LFE
Частота : 48,0 КГц
Битовая глубина : 24 бит
Метод сжатия : С потерями
Задержка видео : 11 мс.
Размер потока : 1,37 Гбайт (8%)
Заголовок : DTS 5.1 @ 1536 kbps
Язык : English
Default : Нет
Forced : Нет

Аудио #3
Идентификатор : 4
Формат : AC-3
Формат/Информация : Audio Coding 3
Расширение режима : CM (complete main)
Параметр Endianness формата : Big
Идентификатор кодека : A_AC3
Продолжительность : 2 ч. 10 м.
Вид битрейта : Постоянный
Битрейт : 640 Кбит/сек
Каналы : 6 каналов
Расположение каналов : Front: L C R, Side: L R, LFE
Частота : 48,0 КГц
Битовая глубина : 16 бит
Метод сжатия : С потерями
Размер потока : 597 Мбайт (3%)
Заголовок : AC3 5.1 @ 640 kbps - Descriptive
Язык : English
Default : Нет
Forced : Нет

Аудио #4
Идентификатор : 5
Формат : AC-3
Формат/Информация : Audio Coding 3
Расширение режима : CM (complete main)
Параметр Endianness формата : Big
Идентификатор кодека : A_AC3
Продолжительность : 2 ч. 10 м.
Вид битрейта : Постоянный
Битрейт : 224 Кбит/сек
Каналы : 2 канала
Расположение каналов : Front: L R
Частота : 48,0 КГц
Битовая глубина : 16 бит
Метод сжатия : С потерями
Размер потока : 209 Мбайт (1%)
Заголовок : AC3 2.0 @ 224 kbps - Commentary by Tom Cruise and Director Christopher McQuarrie
Язык : English
Default : Нет
Forced : Нет

Аудио #5
Идентификатор : 6
Формат : AC-3
Формат/Информация : Audio Coding 3
Расширение режима : CM (complete main)
Параметр Endianness формата : Big
Идентификатор кодека : A_AC3
Продолжительность : 2 ч. 10 м.
Вид битрейта : Постоянный
Битрейт : 224 Кбит/сек
Каналы : 2 канала
Расположение каналов : Front: L R
Частота : 48,0 КГц
Битовая глубина : 16 бит
Метод сжатия : С потерями
Размер потока : 209 Мбайт (1%)
Заголовок : AC3 2.0 @ 224 kbps - Commentary by Composer Joe Kraemer
Язык : English
Default : Нет
Forced : Нет

Текст #1
Идентификатор : 7
Формат : UTF-8
Идентификатор кодека : S_TEXT/UTF8
Идентификатор кодека/Информация : UTF-8 Plain Text
Заголовок : Full
Язык : English
Default : Нет
Forced : Нет

Текст #2
Идентификатор : 8
Формат : UTF-8
Идентификатор кодека : S_TEXT/UTF8
Идентификатор кодека/Информация : UTF-8 Plain Text
Заголовок : SDH
Язык : English
Default : Нет
Forced : Нет

Текст #3
Идентификатор : 9
Формат : UTF-8
Идентификатор кодека : S_TEXT/UTF8
Идентификатор кодека/Информация : UTF-8 Plain Text
Заголовок : SDH-COLORED
Язык : English
Default : Нет
Forced : Нет

Меню
00:00:00.000 : en:00:00:00.000
00:08:21.668 : en:00:08:21.668
00:14:19.901 : en:00:14:19.901
00:21:51.685 : en:00:21:51.685
00:30:02.342 : en:00:30:02.342
00:35:46.478 : en:00:35:46.478
00:41:22.980 : en:00:41:22.980
00:49:08.112 : en:00:49:08.112
00:55:36.291 : en:00:55:36.291
01:01:44.117 : en:01:01:44.117
01:08:11.296 : en:01:08:11.296
01:16:56.320 : en:01:16:56.320
01:23:51.526 : en:01:23:51.526
01:30:20.165 : en:01:30:20.165
01:38:01.584 : en:01:38:01.584
01:45:08.928 : en:01:45:08.928
01:53:39.312 : en:01:53:39.312
02:01:50.470 : en:02:01:50.470


Свернуть
Скриншоты

Изображение
Изображение
Изображение
Изображение
Изображение
Свернуть
_________________
Изображение
Изображение


Последний раз редактировалось Джокер 2013-04-20 12:23, всего редактировалось 1 раз.
Не в сети
Профиль  
 Добавлено: 2013-04-20 11:09 (спустя 31 минута)
Руководитель релиз-группы
Аватара пользователя
Стаж: 7 лет 5 месяцев
Возраст: 31
Сообщений: 3406
Спасибок: 46729
Лайков: 5
Джокер
добавьте сэмпл
Не в сети
Профиль  
 Добавлено: 2013-04-20 12:24 (спустя 1 час 14 минут)
Top-releaser
Аватара пользователя
Стаж: 8 лет 9 месяцев
Сообщений: 479
Спасибок: 20190
Лайков: 16

askboy:

Джокер
добавьте сэмпл
ОК.
_________________
Изображение
Изображение
Не в сети
Профиль  
 Добавлено: 2013-04-23 16:17 (спустя 3 дня)
Аватара пользователя
Стаж: 6 лет 5 месяцев
Сообщений: 13
Отличное кино :bra_vo: :bra_vo: :bra_vo: :bra_vo: :bra_vo:
Не в сети
Профиль  
 Добавлено: 2013-04-24 09:49 (спустя 17 часов)
Стаж: 5 лет 2 месяца
Сообщений: 3
Постаревшая Кожевникова "Универ"! :-D

Добавлено спустя 1 минута:
Фильм классный! Держит у экрана от начала до конца все 2 часа.
Не в сети
Профиль  
 Добавлено: 2013-05-04 21:40 (спустя 10 дней)
Аватара пользователя
Стаж: 8 лет 7 месяцев
Возраст: 33
Сообщений: 84
Том Круз рулит :co_ol:
Не в сети
Профиль  
Начать новую темуОтветить на тему  [ Сообщений: 6 ] 
Вы не можете начинать темы
Вы не можете отвечать на сообщения
Вы не можете редактировать свои сообщения
Вы не можете удалять свои сообщения