Правила форума

  • В этом разделе создание новых тем Запрещено.
  • Для создания новых тем пользуйтесь Корневым разделом DVD и HD фильмы.
Начать новую темуОтветить на тему  [ Сообщений: 5 ] 
Торрент файл
Размер: 35.13 GB • Зарегистрирован: 3 года 7 месяцев • Статус: Проверено
Скачан: 66 раз • Желающих скачать: 0 • Поблагодарили: 24 раза
 Раздают: 0  |  0 KB/s  ]   Качают: 0  |  0 KB/s  ] 
 Полного источника не было 2 дня 20 часов 
Сообщения
 Добавлено: 2013-04-20 23:55
Руководитель релиз-группы
Аватара пользователя
Стаж: 9 лет 1 месяц
Возраст: 28
Сообщений: 4244
Спасибок: 32000
Лайков: 32
Изображение
Джек Ричер / Jack Reacher


«У закона есть пределы. У него их нет.»


Год выпуска | 2012
Страна | США
Жанр | боевик ∙ триллер ∙ криминал ∙ детектив
Продолжительность | 02:10:24
Перевод | Профессиональный (полное дублирование) ∙ Оригинальный ∙ Комментарии ∙ Субтитры (английские)
Режиссер | Кристофер МакКуорри
Сценарий | Кристофер МакКуорри ∙ Ли Чайлд
Продюсер | Том Круз ∙ Пола Вагнер ∙ Дэвид Эллисон ∙ Дэна Голдберг ∙ Дон Грэйнджер
Оператор | Калеб Дешанель
Композитор | Джо Крэмер

В ролях | Том Круз (Reacher) ∙ Розамунд Пайк (Helen) ∙ Ричард Дженкинс (Rodin) ∙ Вернер Херцог (The Zec) ∙ Дэвид Ойелоуо (Emerson) ∙ Роберт Дювалл (Cash) ∙ Джай Кортни (Charlie) ∙ Владимир Сизов (Vlad) ∙ Джозеф Сикора (Barr) ∙ Майкл Рэймонд-Джеймс (Linsky) ∙ Алексия Фаст (Sandy) ∙ Джош Хелман (Jeb) и др.
Дублёры | Всеволод Кузнецов (Reacher) ∙ Татьяна Шитова (Helen) ∙ Игорь Старосельцев (Rodin) ∙ Тимофей Спивак (The Zec) ∙ Илья Хвостиков (Emerson) ∙ Владимир Левашев (Cash) ∙ Александр Дзюба (Charlie) ∙ Денис Шведов (Vlad) ∙ Александр Носков (Barr) ∙ Даниил Щебланов (Linsky) ∙ Мария Иващенко (Sandy) ∙ Кирилл Туранский (Gary) и др.
Описание | Снайпер убивает пять случайных прохожих, но все улики указывают на человека, заключенного под стражу. На допросе подозреваемый умоляет об одном — найти Джека Ричера.
Релиз | ИзображениеРаздача | Изображение

kinopoisk.ru | 7.327 (11 160)
Бюджет | $60 000 000
Сборы в США | $80 070 736
Сборы в России | $4 629 810
Сборы в мире | $216 568 266
Мировая премьера | 20 декабря 2012
Релиз на DVD | 13 мая 2013 ∙ «Новый Диск»
Релиз на Blu-Ray | 13 мая 2013 ∙ «Новый Диск»
Качество | BD Remux
Контейнер | BDAV
Видео | AVC ∙ 1920x1080 (16:9) ∙ 32000 kbps ∙ 23.976 fps ∙ 0.644 bit/pixel
Аудио #1 | DTS-HD ∙ 3396 kbps ∙ VBR ∙ 6 channels ∙ 24 bit /DUB/
Аудио #2 | DTS-HD ∙ 4173 kbps ∙ VBR ∙ 8 channels ∙ 24 bit /ENG/
Аудио #3 | AC3 ∙ 640 kbps ∙ CBR ∙ 6 channels ∙ 16 bit /DESCR/
Аудио #4 | AC3 ∙ 224 kbps ∙ CBR ∙ 2 channels ∙ 16 bit /COMM/
Аудио #5 | AC3 ∙ 224 kbps ∙ CBR ∙ 2 channels ∙ 16 bit /COMM/

MediaInfo
General
ID : 1 (0x1)
Complete name : I:\films\Jack.Reacher.2012.BDRemux\BDMV\STREAM\00000.m2ts
Format : BDAV
Format/Info : Blu-ray Video
File size : 35.1 GiB
Duration : 2h 10mn
Overall bit rate mode : Variable
Overall bit rate : 38.6 Mbps
Maximum Overall bit rate : 35.5 Mbps

Video
ID : 4113 (0x1011)
Menu ID : 1 (0x1)
Format : AVC
Format/Info : Advanced Video Codec
Format profile : High@L4.1
Format settings, CABAC : Yes
Format settings, ReFrames : 4 frames
Codec ID : 27
Duration : 2h 10mn
Bit rate mode : Variable
Bit rate : 32.0 Mbps
Width : 1 920 pixels
Height : 1 080 pixels
Display aspect ratio : 16:9
Frame rate : 23.976 fps
Color space : YUV
Chroma subsampling : 4:2:0
Bit depth : 8 bits
Scan type : Progressive
Bits/(Pixel*Frame) : 0.644
Stream size : 29.1 GiB (83%)

Audio #1
ID : 4352 (0x1100)
Menu ID : 1 (0x1)
Format : DTS
Format/Info : Digital Theater Systems
Format profile : MA / Core
Muxing mode : Stream extension
Codec ID : 134
Duration : 2h 10mn
Bit rate mode : Variable
Bit rate : 2 347 Kbps / 1 510 Kbps
Channel(s) : 6 channels
Channel positions : Front: L C R, Side: L R, LFE
Sampling rate : 48.0 KHz
Bit depth : 24 bits
Compression mode : Lossless / Lossy
Language : Russian

Audio #2
ID : 4353 (0x1101)
Menu ID : 1 (0x1)
Format : DTS
Format/Info : Digital Theater Systems
Format profile : MA / Core
Muxing mode : Stream extension
Codec ID : 134
Duration : 2h 10mn
Bit rate mode : Variable
Bit rate : 1 597 Kbps / 1 510 Kbps
Channel(s) : 8 channels / 6 channels
Channel positions : Front: L C R, Side: L R, Back: L R, LFE / Front: L C R, Side: L R, LFE
Sampling rate : 48.0 KHz
Bit depth : 24 bits
Compression mode : Lossless / Lossy
Language : English

Audio #3
ID : 4354 (0x1102)
Menu ID : 1 (0x1)
Format : AC-3
Format/Info : Audio Coding 3
Mode extension : CM (complete main)
Codec ID : 129
Duration : 2h 10mn
Bit rate mode : Constant
Bit rate : 640 Kbps
Channel(s) : 6 channels
Channel positions : Front: L C R, Side: L R, LFE
Sampling rate : 48.0 KHz
Bit depth : 16 bits
Compression mode : Lossy
Stream size : 597 MiB (2%)
Language : English

Audio #4
ID : 4355 (0x1103)
Menu ID : 1 (0x1)
Format : AC-3
Format/Info : Audio Coding 3
Mode extension : CM (complete main)
Codec ID : 129
Duration : 2h 10mn
Bit rate mode : Constant
Bit rate : 224 Kbps
Channel(s) : 2 channels
Channel positions : Front: L R
Sampling rate : 48.0 KHz
Bit depth : 16 bits
Compression mode : Lossy
Stream size : 209 MiB (1%)
Language : English

Audio #5
ID : 4356 (0x1104)
Menu ID : 1 (0x1)
Format : AC-3
Format/Info : Audio Coding 3
Mode extension : CM (complete main)
Codec ID : 129
Duration : 2h 10mn
Bit rate mode : Constant
Bit rate : 224 Kbps
Channel(s) : 2 channels
Channel positions : Front: L R
Sampling rate : 48.0 KHz
Bit depth : 16 bits
Compression mode : Lossy
Stream size : 209 MiB (1%)
Language : English

Text #1
ID : 4610 (0x1202)
Menu ID : 1 (0x1)
Format : PGS
Codec ID : 144
Delay relative to video : 5s 589ms
Language : English

Text #2
ID : 4611 (0x1203)
Menu ID : 1 (0x1)
Format : PGS
Codec ID : 144
Delay relative to video : 5s 881ms
Language : English
Свернуть

Скриншоты

Изображение

Изображение

Изображение
Свернуть
_________________
«you failed because you had the wrong dream...»
Не в сети
Профиль  
 Добавлено: 2013-04-24 11:52 (спустя 3 дня)
Аватара пользователя
Стаж: 6 лет 3 месяца
Сообщений: 14
А как его смотреть на компе, каким плеером?
_________________
путь к совершенству долог и очень непрост
Не в сети
Профиль  
 Добавлено: 2013-04-24 13:44 (спустя 1 час 51 минута)
Стаж: 8 лет
Сообщений: 2
Спасибок: 2
PowerDVD 11 или 12
Не в сети
Профиль  
 Добавлено: 2013-04-24 20:44 (спустя 6 часов)
Top-releaser
Аватара пользователя
Стаж: 8 лет 7 месяцев
Сообщений: 1286
Спасибок: 3420
Лайков: 7

andrey7000:

А как его смотреть на компе, каким плеером?
TotalMedia Theatre
Не в сети
Профиль  
 Добавлено: 2013-04-27 15:44 (спустя 2 дня 18 часов)
Аватара пользователя
Стаж: 6 лет 3 месяца
Сообщений: 14
Smusmumrik87
Shamman
Спасибо вам за подсказку
_________________
путь к совершенству долог и очень непрост
Не в сети
Профиль  
Начать новую темуОтветить на тему  [ Сообщений: 5 ] 
Вы не можете начинать темы
Вы не можете отвечать на сообщения
Вы не можете редактировать свои сообщения
Вы не можете удалять свои сообщения