Правила форума

  • В этом разделе создание новых тем Запрещено.
  • Для создания новых тем пользуйтесь Корневым разделом DVD и HD фильмы.
Начать новую темуОтветить на тему  [ Сообщений: 9 ] 
Торрент файл
Размер: 4.64 GB • Зарегистрирован: 3 года 8 месяцев • Статус: T Временный релиз
Скачан: 73 раза • Желающих скачать: 0 • Поблагодарили: 25 раз
 Раздают: 0  |  0 KB/s  ]   Качают: 0  |  0 KB/s  ] 
 Полного источника не было 3 года 
Сообщения
 Добавлено: 2013-04-04 13:26
Книголюб
Аватара пользователя
Стаж: 7 лет 2 месяца
Сообщений: 2823
Спасибок: 48823
Лайков: 73
Джек – убийца великанов
Jack the Giant Killer

Изображение


Год выпуска: 2013
Страна: США
Жанр: фэнтези, боевик
Продолжительность: 01:27:12
Перевод: Любительский (двухголосый закадровый)

Режиссёр: Марк Аткинс
В ролях: Бен Кросс, Джейн Марч, Джэми Аткинс, Вики Гловер, Таня Винсор, Джулиан Бут, Гарри Дайер, Джон Кэмплинг, Стив Мактик.
Описание: Чтобы остановить ужасных чудовищ, угрожающих людям, смельчаку Джеку придётся вступить с ними в неравный бой
Мировая премьера: 18 февраля 2013
Изображение

Качество:BDRip 720p
Формат: AVC

Видео кодек: MKV
Аудио кодек: AC3 (Dolby Digital)
Видео: 1280x720 23.976fps 5 657 Kbps
Аудио #1: русский:Dolby AC3 48000Hz 6ch 448 Kbps
Аудио #2: английский:DTS 48000Hz 6ch 1 510 Kbps
MediaInfo
General
Unique ID : 249887296831045537954228524050859559913 (0xBBFE8AF2E6E47FDAB97FC78207660BE9)
Complete name : K:\Torrent\Jack the Giant Killer .mkv
Format : Matroska
Format version : Version 2
File size : 4.64 GiB
Duration : 1h 27mn
Overall bit rate : 7 615 Kbps
Encoded date : UTC 2013-04-03 21:57:41
Writing application : mkvmerge v2.9.8 ('C'est le bon') built on Nov 20 2009 13:01:15
Writing library : libebml v0.7.9 + libmatroska v0.8.1

Video
ID : 1
Format : AVC
Format/Info : Advanced Video Codec
Format profile : High@L4.1
Format settings, CABAC : Yes
Format settings, ReFrames : 5 frames
Codec ID : V_MPEG4/ISO/AVC
Duration : 1h 27mn
Bit rate : 5 657 Kbps
Width : 1 280 pixels
Height : 720 pixels
Display aspect ratio : 16:9
Frame rate : 23.976 fps
Color space : YUV
Chroma subsampling : 4:2:0
Bit depth : 8 bits
Scan type : Progressive
Bits/(Pixel*Frame) : 0.256
Stream size : 3.35 GiB (72%)
Writing library : x264 core 130 r2273 b3065e6
Encoding settings : cabac=1 / ref=5 / deblock=1:0:0 / analyse=0x3:0x133 / me=umh / subme=7 / psy=1 / psy_rd=1.00:0.00 / mixed_ref=1 / me_range=16 / chroma_me=1 / trellis=1 / 8x8dct=1 / cqm=0 / deadzone=21,11 / fast_pskip=0 / chroma_qp_offset=-2 / threads=18 / lookahead_threads=3 / sliced_threads=0 / nr=0 / decimate=1 / interlaced=0 / bluray_compat=0 / constrained_intra=0 / bframes=3 / b_pyramid=2 / b_adapt=1 / b_bias=0 / direct=1 / weightb=1 / open_gop=0 / weightp=2 / keyint=240 / keyint_min=23 / scenecut=40 / intra_refresh=0 / rc_lookahead=40 / rc=2pass / mbtree=1 / bitrate=5657 / ratetol=1.0 / qcomp=0.60 / qpmin=10 / qpmax=69 / qpstep=4 / cplxblur=20.0 / qblur=0.5 / ip_ratio=1.40 / aq=1:1.00
Language : English
Default : No
Forced : No

Audio #1
ID : 2
Format : AC-3
Format/Info : Audio Coding 3
Mode extension : CM (complete main)
Codec ID : A_AC3
Duration : 1h 27mn
Bit rate mode : Constant
Bit rate : 448 Kbps
Channel(s) : 6 channels
Channel positions : Front: L C R, Side: L R, LFE
Sampling rate : 48.0 KHz
Bit depth : 16 bits
Compression mode : Lossy
Stream size : 279 MiB (6%)
Language : Russian
Default : Yes
Forced : Yes

Audio #2
ID : 3
Format : DTS
Format/Info : Digital Theater Systems
Codec ID : A_DTS
Duration : 1h 27mn
Bit rate mode : Constant
Bit rate : 1 510 Kbps
Channel(s) : 6 channels
Channel positions : Front: L C R, Side: L R, LFE
Sampling rate : 48.0 KHz
Bit depth : 16 bits
Compression mode : Lossy
Delay relative to video : 11ms
Stream size : 942 MiB (20%)
Language : English
Default : No
Forced : No

Menu
00:00:00.000 : en:00:00:00.000
00:09:59.974 : en:00:09:59.974
00:19:59.990 : en:00:19:59.990
00:29:59.964 : en:00:29:59.964
00:39:59.980 : en:00:39:59.980
00:49:59.955 : en:00:49:59.955
00:59:59.971 : en:00:59:59.971
01:09:59.945 : en:01:09:59.945
01:19:59.920 : en:01:19:59.920

]
Свернуть

Скриншоты
Изображение
Изображение
Изображение
Изображение
Свернуть


Последний раз редактировалось coldun 2013-04-04 15:08, всего редактировалось 2 раз(а).
Не в сети
Профиль  
 Добавлено: 2013-04-04 14:38 (спустя 1 час 12 минут)
Аватара пользователя
Стаж: 6 лет
Сообщений: 17
Спасибок: 7
:sh_ok:
_________________
Изображение
Не в сети
Профиль  
 Добавлено: 2013-04-04 14:50 (спустя 12 минут)
Аватара пользователя
Стаж: 7 лет 5 месяцев
Сообщений: 134
Спасибок: 4
Динозавры пластилиновые? Улыбнуло, но спасибку нажал...
Не в сети
Профиль  
 Добавлено: 2013-04-04 15:03 (спустя 13 минут)
Стаж: 8 лет 10 месяцев
Сообщений: 25
Лайков: 4
Не путать с "Джек – покоритель великанов ("Jack the Giant Slayer"). http://www.kinopoisk.ru/film/462453/
Не в сети
Профиль  
 Добавлено: 2013-04-04 16:05 (спустя 1 час 1 минута)
Аватара пользователя
Стаж: 4 года 1 месяц
Возраст: 21
Сообщений: 1360
Лайков: 7
аха
_________________
Если ты это читаешь, значит ты неудачник.
Не в сети
Профиль  
 Добавлено: 2013-04-05 05:48 (спустя 13 часов)
Avenger
Аватара пользователя
Стаж: 7 лет 4 месяца
Сообщений: 326
Спасибок: 1906
Лайков: 2
Asylum не спит! :)
Не в сети
Профиль  
 Добавлено: 2013-04-05 19:18 (спустя 13 часов)
Музыкоед
Аватара пользователя
Стаж: 7 лет 4 месяца
Сообщений: 2103
Лайков: 466
Как часто бывает, накануне громкой разрекламированной премьеры изготовители фуфлыги стригут свои купоны.
Не в сети
Профиль  
 Добавлено: 2013-04-08 18:48 (спустя 2 дня 23 часа)
Аватара пользователя
Стаж: 7 лет 6 месяцев
Возраст: 32
Сообщений: 70
Спасибок: 124
Мдя... здорово накололи. Как раз в кино (как выяснилось после просмотра похожее лишь названием), и тут опа... уже на торенте, качаем, смотрим, дивимся "современным спецэффектам" (я при желании лучше в домашних условиях зделаю на компе). Пипец вобщем :ps_ih:
Не в сети
Профиль  
 Добавлено: 2013-04-12 08:46 (спустя 3 дня)
Аватара пользователя
Стаж: 5 лет 3 месяца
Возраст: 29
Сообщений: 470
Спасибок: 779
Лайков: 13
у таких раздач надо киностудию писать в топике, да и рейтинг не помешало бы, а так да - асилум во всей красе
_________________
Ростелеком в частном доме
Изображение
Не в сети
Профиль  
Начать новую темуОтветить на тему  [ Сообщений: 9 ] 
Вы не можете начинать темы
Вы не можете отвечать на сообщения
Вы не можете редактировать свои сообщения
Вы не можете удалять свои сообщения