Правила форума

  • В этом разделе создание новых тем Запрещено.
  • Для создания новых тем пользуйтесь Корневым разделом DVD и HD фильмы.
Начать новую темуОтветить на тему  [ Сообщений: 6 ] 
Торрент файл
Размер: 8.27 GB • Зарегистрирован: 3 года 11 месяцев • Статус: Проверено
Скачан: 84 раза • Желающих скачать: 0 • Поблагодарили: 35 раз
 Раздают: 0  |  0 KB/s  ]   Качают: 0  |  0 KB/s  ] 
 Полного источника не было 13 часов 
Сообщения
 Добавлено: 2012-12-27 00:13
Модератор релиз-группы
Аватара пользователя
Стаж: 7 лет 8 месяцев
Возраст: 29
Сообщений: 9789
Спасибок: 23732
Лайков: 103
Изображение

Джей и молчаливый Боб наносят ответный удар
Jay and Silent Bob Strike Back


Год выпуска: 2001
Страна: США
Слоган: «Голливуд доигрался!»
Жанр: комедия
Продолжительность: 01:44:28
Перевод: Профессиональный (полное дублирование)
Режиссер: Кевин Смит
Сценарий: Кевин Смит
Продюсер: Скотт Можер, Джон Гордон, Лаура Гринли, Боб Вайнштейн, Харви Вайнштейн
Оператор: Джейми Андерсон
Композитор: Джеймс Л. Винейбл
В ролях: Джейсон Мьюз, Кевин Смит, Шеннон Элизабет, Уилл Феррелл, Элиза Душку, Эли Лартер, Джейсон Ли, Керри Фишер, Бэн Аффлек, Крис Рок, Аланис Мориссетт
Бюджет: $22 000 000
Сборы в США: $30 085 147
Сборы в мире: $33 788 161
Мировая премьера: 22 августа 2001
Описание: Как-то раз в один погожий день небезызвестные Джей и Молчун Боб как всегда подпирали спиной стену бакалейной лавки в Нью-Джерси, и именно там их застало страшное известие, что их персоны, оказывается, лежат в основе комиксов «Пыхарь и Хроник», которые в Голливуде даже собираются экранизировать.
Учитывая, что наша парочка не получила ни цента за то, что их именами нагло воспользовались, прилюдно выставив полными идиотами, Джей и Молчун Боб отправляются на студию «Miramax», дабы восстановить справедливость.


Изображение User Rating: 7.109 (22 263)
Изображение User Rating: 6.80 (91 924)
MPAA: R - Лицам до 17 лет обязательно присутствие взрослого
Раздача группы: Изображение
Качество: BDRip, 1080p
Формат: Matroska
Видео: AVC; 1920x816 (2.35:1); 9961 Kbps; 23,976 fps; 0,265 bit/pixel
Аудио №1: Russian; AC3; 448 Kbps; CBR; 6 ch
Аудио №2: English; Vorbis; 64 Kbps; 2 ch
Аудио №3: English; AC3; 640 Kbps; CBR; 6 ch

Субтитры №1: Russian
Субтитры №2: English

MediaInfo
    Общее
    Уникальный идентификатор : 209536767198142770764149763820927324417 (0x9DA3503D958CE4BF8B3323767C441101)
    Полное имя : D:\TORRENT\Jay.i.molchaliviy.Bob.nanosyat.otvetniy.udar.[R.G.Daredevil].mkv
    Формат : Matroska
    Размер файла : 8,27 Гбайт
    Продолжительность : 1 ч. 44 м.
    Общий поток : 11,3 Мбит/сек
    Дата кодирования : UTC 2008-06-24 16:11:56
    Программа кодирования : mkvmerge v2.1.0 ('Another Place To Fall') built on Aug 19 2007 13:40:07
    Библиотека кодирования : libebml v0.7.7 + libmatroska v0.8.1
    Обложка : Yes

    Видео
    Идентификатор : 1
    Формат : AVC
    Формат/Информация : Advanced Video Codec
    Профиль формата : High@L5.1
    Параметр CABAC формата : Да
    Параметр ReFrames формата : 8 кадров
    Идентификатор кодека : V_MPEG4/ISO/AVC
    Продолжительность : 1 ч. 44 м.
    Битрейт : 10,2 Мбит/сек
    Ширина : 1920 пикс.
    Высота : 816 пикс.
    Соотношение сторон : 2,35:1
    Частота кадров : 23,976 кадр/сек
    Цветовое пространство : YUV
    Подвыборка цветности : 4:2:0
    Битовая глубина : 8 бит
    Тип развёртки : Прогрессивная
    Бит/(Пиксели*Кадры) : 0.271
    Размер потока : 7,27 Гбайт (88%)
    Заголовок : Jay and Silent Bob Strike Back (2001)
    Библиотека кодирования : x264 core 54
    Настройки программы : cabac=1 / ref=5 / deblock=1:-6:-6 / analyse=0x3:0x133 / me=umh / subme=7 / brdo=1 / mixed_ref=1 / me_range=16 / chroma_me=1 / trellis=1 / 8x8dct=1 / cqm=2 / deadzone=21,11 / chroma_qp_offset=0 / threads=3 / nr=0 / decimate=1 / mbaff=0 / bframes=2 / b_pyramid=1 / b_adapt=1 / b_bias=0 / direct=3 / wpredb=1 / bime=1 / keyint=250 / keyint_min=25 / scenecut=40(pre) / rc=2pass / bitrate=10180 / ratetol=1.0 / rceq='blurCplx^(1-qComp)' / qcomp=0.60 / qpmin=10 / qpmax=51 / qpstep=4 / cplxblur=20.0 / qblur=0.5 / ip_ratio=1.40 / pb_ratio=1.30 / zones / aq=1:0.3:15.0
    Язык : English

    Аудио #1
    Идентификатор : 2
    Формат : AC-3
    Формат/Информация : Audio Coding 3
    Расширение режима : CM (complete main)
    Идентификатор кодека : A_AC3
    Продолжительность : 1 ч. 44 м.
    Вид битрейта : Постоянный
    Битрейт : 448 Кбит/сек
    Каналы : 6 каналов
    Расположение каналов : Front: L C R, Side: L R, LFE
    Частота : 48,0 КГц
    Битовая глубина : 16 бит
    Метод сжатия : С потерями
    Размер потока : 335 Мбайт (4%)
    Заголовок : Russian.AC3_5.1.448kb/s
    Язык : Russian

    Аудио #2
    Идентификатор : 4
    Формат : Vorbis
    Параметр Floor формата : 1
    Идентификатор кодека : A_VORBIS
    Продолжительность : 1 ч. 44 м.
    Битрейт : 64,0 Кбит/сек
    Каналы : 2 канала
    Частота : 48,0 КГц
    Метод сжатия : С потерями
    Размер потока : 47,8 Мбайт (1%)
    Заголовок : Commentary
    Библиотека кодирования : libVorbis 1.0 (UTC 2002-07-17)
    Язык : English

    Аудио #3
    Идентификатор : 6
    Формат : AC-3
    Формат/Информация : Audio Coding 3
    Расширение режима : CM (complete main)
    Идентификатор кодека : A_AC3
    Продолжительность : 1 ч. 44 м.
    Вид битрейта : Постоянный
    Битрейт : 640 Кбит/сек
    Каналы : 6 каналов
    Расположение каналов : Front: L C R, Side: L R, LFE
    Частота : 48,0 КГц
    Битовая глубина : 16 бит
    Метод сжатия : С потерями
    Размер потока : 478 Мбайт (6%)
    Заголовок : English
    Язык : English

    Текст #1
    Идентификатор : 3
    Формат : UTF-8
    Идентификатор кодека : S_TEXT/UTF8
    Идентификатор кодека/Информация : UTF-8 Plain Text
    Заголовок : Russian
    Язык : Russian

    Текст #2
    Идентификатор : 5
    Формат : ASS
    Идентификатор кодека : S_TEXT/ASS
    Идентификатор кодека/Информация : Advanced Sub Station Alpha
    Метод сжатия : Без потерь
    Заголовок : English
    Язык : English
Свернуть
"Знаете ли Вы, что..."
  • В фильмах Кевина Смита часто упоминается число 37. В данной картине можно заметить баннер, на котором написано «Поздравьте нас с нашим 37 ограблением». Сцена, на съёмки которой попадают Джей и Боб, обозначена как «Сцена 37, дубль 1». Тюремный номер Джастис - 373737.
Свернуть
Скриншоты

Изображение
Изображение
Изображение
Изображение
Изображение
Изображение
Свернуть
Не в сети
Профиль  
 Добавлено: 2013-12-13 22:07 (спустя 11 месяцев)
Аватара пользователя
Стаж: 4 года 2 месяца
Возраст: 21
Сообщений: 1360
Лайков: 7
классика
_________________
Если ты это читаешь, значит ты неудачник.
Не в сети
Профиль  
 Добавлено: 2013-12-19 08:50 (спустя 5 дней)
Стаж: 7 лет 6 месяцев
Возраст: 32
Сообщений: 71
Лайков: 1
какой такой интернет б@я? :-D
Не в сети
Профиль  
 Добавлено: 2014-11-23 09:52 (спустя 11 месяцев)
Аватара пользователя
Стаж: 7 лет 1 месяц
Сообщений: 136
Лайков: 2
;;-))) ;;-))) ;;-))) ;;-))) ;;-))) ;;-)))
Не в сети
Профиль  
 Добавлено: 2014-11-28 15:16 (спустя 5 дней)
Аватара пользователя
Стаж: 7 лет 11 месяцев
Сообщений: 41
Лайков: 2
:co_ol:
Не в сети
Профиль  
 Добавлено: 2014-11-28 17:16 (спустя 2 часа)
Аватара пользователя
Стаж: 8 лет 10 месяцев
Возраст: 37
Сообщений: 136
Спасибок: 97
Лайков: 3
Чево вола дрочишь.Начинай Сосать.Баааааанк.
Не в сети
Профиль  
Начать новую темуОтветить на тему  [ Сообщений: 6 ] 
Вы не можете начинать темы
Вы не можете отвечать на сообщения
Вы не можете редактировать свои сообщения
Вы не можете удалять свои сообщения