Правила форума

  • В этом разделе создание новых тем Запрещено.
  • Для создания новых тем пользуйтесь Корневым разделом DVD и HD фильмы.
Начать новую темуОтветить на тему  [ 1 сообщение ] 
Торрент файл
Размер: 8.7 GB • Зарегистрирован: 4 года 1 месяц • Статус: Проверено
Скачан: 18 раз • Желающих скачать: 0 • Поблагодарили: 7 раз
 Раздают: 0  |  0 KB/s  ]   Качают: 0  |  0 KB/s  ] 
 Полного источника не было 1 год 8 месяцев 
Сообщения
 Добавлено: 2012-10-25 18:44
Top-releaser
Аватара пользователя
Стаж: 6 лет 7 месяцев
Сообщений: 2078
Спасибок: 3229
Лайков: 9
Изображение

И целого мира мало
The World Is Not Enough


Год выпуска: 1999
Страна: Великобритания, США
Слоган: «Bond is Back»
Жанр: боевик, триллер, приключения
Продолжительность: 02:08:20
Перевод: Профессиональный (полное дублирование)
Режиссер: Майкл Эптид
Сценарий: Нил Пёрвис, Роберт Уэйд, Брюс Файрстин, Ян Флеминг
Продюсер: Барбара Брокколи, Майкл Дж. Уилсон, Найджел Голдсак, Энтони Вайе
Оператор: Эдриан Биддл
Композитор: Дэвид Арнольд
В ролях: Пирс Броснан, Софи Марсо, Роберт Карлайл, Дениз Ричардс, Робби Колтрейн, Джуди Денч, Десмонд Ллевелин, Джон Клиз, Мария Грация Кучинотта, Саманта Бонд, Майкл Кичен, Колин Сэлмон
Бюджет: $135 000 000
Сборы в США: $126 943 684
Сборы в мире: $361 832 400
Мировая премьера: 8 ноября 1999
Релиз на Blu-ray: 23 апреля 2009, «Двадцатый Век Фокс СНГ»
Описание: Ренард, техногенный террорист, обладает необыкновенной, смертельно опасной способностью - он не чувствует боли. Способность эта возникла у него в результате пулевого ранения в голову.
Когда Ренард изобретает хитроумную схему, позволяющую взять под контроль все нефтяные ресурсы планеты, Агент 007 становится последней надеждой человечества. Миссия сулит ему как опасности, так и удовольствия - в лице знойной «нефтяной принцессы» и неотразимой ученой. Герою предстоит схватка с безжалостным врагом, который не остановится ни перед чем, претворяя в жизнь свой разрушительный план.

Раздача группы: Изображение

Изображение User Rating: 7.245 (6 826)
Изображение User Rating: 6.30 (94 691)
MPAA: PG-13 - Детям до 13 лет просмотр не желателен
Качество: BDRip, 720p
Формат: Matroska
Видео: AVC; 1280x544 (2.35:1); 5498 Kbps; 23,976 fps; 0,329 bit/pixel
Аудио №1: Russian; DTS; 754 Kbps; CBR; 6 ch; 24 bit - Дубляж
Аудио №2: English; Vorbis; 80 Kbps; CBR; 2 ch - Commentary by Peter Lemont, David Arnold and Vic Armstrong
Аудио №3: English; Vorbis; 80 Kbps; CBR; 2 ch - Commentary by director Michael Apted
Аудио №4: Russian; AC3; 448 Kbps; CBR; 6 ch - Киномания - отдельно
Аудио №5: Russian; DTS; 755 Kbps; CBR; 6 ch - Гланц и Королёва - отдельно
Аудио №6: Russian; AC3; 448 Kbps; CBR; 6 ch - Ю. Живов - отдельно
Аудио №7: English; DTS; 1510 Kbps; CBR; 6 ch - отдельно
Субтитры: Russian, English, Czech, French, Hungarian, Romanian

MediaInfo
Общее
Уникальный идентификатор : 242352786947254431707911436839239399069 (0xB65372EE4E0354AF909FEE6F7C9DB69D)
Полное имя : Z:\WWW\TR-Downloads\The.World.Is.Not.Enough.720p.[R.G.Daredevil]\The.World.Is.Not.Enough.1999.720p.BluRay.DTS.x264.mkv
Формат : Matroska
Версия формата : Version 1
Размер файла : 5,87 Гбайт
Продолжительность : 2 ч. 8 м.
Режим общего битрейта : Переменный
Общий поток : 6543 Кбит/сек
Название фильма : The World Is Not Enough (1999)
Дата кодирования : UTC 2009-04-01 14:03:23
Программа кодирования : mkvmerge v2.5.2 ('Stranger in your Soul') built on Feb 28 2009 18:58:17
Библиотека кодирования : libebml v0.7.7 + libmatroska v0.8.1
Attachment : Yes / Yes / Yes

Видео
Идентификатор : 1
Формат : AVC
Формат/Информация : Advanced Video Codec
Профиль формата : High@L4.1
Параметр CABAC формата : Да
Параметр ReFrames формата : 9 кадров
Идентификатор кодека : V_MPEG4/ISO/AVC
Продолжительность : 2 ч. 8 м.
Битрейт : 5625 Кбит/сек
Ширина : 1280 пикселей
Высота : 544 пикселя
Соотношение сторон : 2,35:1
Частота кадров : 23,976 кадра/сек
Цветовое пространство : YUV
Субдискретизация насыщенности : 4:2:0
Битовая глубина : 8 бит
Тип развёртки : Прогрессивная
Бит/(Пиксели*Кадры) : 0.337
Размер потока : 4,93 Гбайт (84%)
Заголовок : -=ESiR=-
Библиотека кодирования : x264 core 67 r1120M 8544346
Настройки программы : cabac=1 / ref=9 / deblock=1:-3:-3 / analyse=0x3:0x133 / me=umh / subme=9 / psy_rd=0.7:0.7 / mixed_ref=1 / me_range=16 / chroma_me=1 / trellis=2 / 8x8dct=1 / cqm=2 / deadzone=21,11 / chroma_qp_offset=-4 / threads=3 / nr=0 / decimate=1 / mbaff=0 / bframes=4 / b_pyramid=1 / b_adapt=2 / b_bias=0 / direct=1 / wpredb=1 / keyint=250 / keyint_min=25 / scenecut=40 / rc=2pass / bitrate=5625 / ratetol=1.0 / qcomp=0.60 / qpmin=10 / qpmax=28 / qpstep=4 / cplxblur=20.0 / qblur=0.5 / vbv_maxrate=35000 / vbv_bufsize=35000 / ip_ratio=1.40 / pb_ratio=1.30 / aq=1:0.70
Язык : English
Default : Да
Forced : Нет

Аудио #1
Идентификатор : 2
Формат : DTS
Формат/Информация : Digital Theater Systems
Идентификатор кодека : A_DTS
Продолжительность : 2 ч. 8 м.
Вид битрейта : Постоянный
Битрейт : 755 Кбит/сек
Каналы : 6 каналов
Расположение каналов : Front: L C R, Side: L R, LFE
Частота : 48,0 КГц
Битовая глубина : 24 бит
Метод сжатия : С потерями
Размер потока : 693 Мбайт (12%)
Заголовок : DTS 5.1, 768 kbps (дубляж)
Язык : Russian
Default : Да
Forced : Нет

Аудио #2
Идентификатор : 3
Формат : Vorbis
Параметр Floor формата : 1
Идентификатор кодека : A_VORBIS
Продолжительность : 2 ч. 8 м.
Вид битрейта : Переменный
Битрейт : 80,0 Кбит/сек
Каналы : 2 канала
Частота : 48,0 КГц
Метод сжатия : С потерями
Размер потока : 73,4 Мбайт (1%)
Заголовок : Commentary by director Michael Apted
Библиотека кодирования : libVorbis 1.1.1/1.1.2 (UTC 2005-03-04)
Язык : English
Default : Нет
Forced : Нет

Аудио #3
Идентификатор : 4
Формат : Vorbis
Параметр Floor формата : 1
Идентификатор кодека : A_VORBIS
Продолжительность : 2 ч. 8 м.
Вид битрейта : Переменный
Битрейт : 80,0 Кбит/сек
Каналы : 2 канала
Частота : 48,0 КГц
Метод сжатия : С потерями
Размер потока : 73,4 Мбайт (1%)
Заголовок : Commentary by Peter Lemont, David Arnold and Vic Armstrong
Библиотека кодирования : libVorbis 1.1.1/1.1.2 (UTC 2005-03-04)
Язык : English
Default : Нет
Forced : Нет

Текст #1
Идентификатор : 5
Формат : UTF-8
Идентификатор кодека : S_TEXT/UTF8
Идентификатор кодека/Информация : UTF-8 Plain Text
Заголовок : Full
Язык : Russian
Default : Да
Forced : Нет

Текст #2
Идентификатор : 6
Формат : UTF-8
Идентификатор кодека : S_TEXT/UTF8
Идентификатор кодека/Информация : UTF-8 Plain Text
Заголовок : for hearing impaired
Язык : Russian
Default : Нет
Forced : Нет

Текст #3
Идентификатор : 7
Формат : UTF-8
Идентификатор кодека : S_TEXT/UTF8
Идентификатор кодека/Информация : UTF-8 Plain Text
Заголовок : Комментарии режиссёра
Язык : Russian
Default : Нет
Forced : Нет

Текст #4
Идентификатор : 8
Формат : UTF-8
Идентификатор кодека : S_TEXT/UTF8
Идентификатор кодека/Информация : UTF-8 Plain Text
Заголовок : Комментарии художника-постановщика
Язык : Russian
Default : Нет
Forced : Нет

Текст #5
Идентификатор : 9
Формат : ASS
Идентификатор кодека : S_TEXT/ASS
Идентификатор кодека/Информация : Advanced Sub Station Alpha
Метод сжатия : Без потерь
Язык : English
Default : Нет
Forced : Нет

Текст #6
Идентификатор : 10
Формат : ASS
Идентификатор кодека : S_TEXT/ASS
Идентификатор кодека/Информация : Advanced Sub Station Alpha
Метод сжатия : Без потерь
Язык : Czech
Default : Нет
Forced : Нет

Текст #7
Идентификатор : 11
Формат : ASS
Идентификатор кодека : S_TEXT/ASS
Идентификатор кодека/Информация : Advanced Sub Station Alpha
Метод сжатия : Без потерь
Язык : French
Default : Нет
Forced : Нет

Текст #8
Идентификатор : 12
Формат : ASS
Идентификатор кодека : S_TEXT/ASS
Идентификатор кодека/Информация : Advanced Sub Station Alpha
Метод сжатия : Без потерь
Язык : Hungarian
Default : Нет
Forced : Нет

Текст #9
Идентификатор : 13
Формат : ASS
Идентификатор кодека : S_TEXT/ASS
Идентификатор кодека/Информация : Advanced Sub Station Alpha
Метод сжатия : Без потерь
Язык : Romanian
Default : Нет
Forced : Нет
Свернуть
"Знаете ли Вы, что..."
  • Это был первый фильм, использовавший технологию объёмного звучания Dolby Digital EX 6.1.
  • Это был последний фильм, в котором роль Q играл Десмонд Ллевелин, который играл эту роль с 1963 года (Из России с любовью). В этом фильме Q представляет Бонду своего приемника (актер Джон Клиз), которого Бонд в шутку называет R (следующая буква английского алфавита). Ллевелин умер в декабре 1999 года.
  • Съемки фильма проходили в Великобритании, Испании, Азербайджане, Казахстане и в Турции.
Свернуть
Скриншоты

Изображение
Изображение
Изображение
Изображение
Изображение
Свернуть
Не в сети
Профиль  
Начать новую темуОтветить на тему  [ 1 сообщение ] 
Вы не можете начинать темы
Вы не можете отвечать на сообщения
Вы не можете редактировать свои сообщения
Вы не можете удалять свои сообщения
cron