Правила форума

  • В этом разделе создание новых тем Запрещено.
  • Для создания новых тем пользуйтесь Корневым разделом DVD и HD фильмы.
Начать новую темуОтветить на тему  [ 1 сообщение ] 
Торрент файл
Размер: 15.05 GB • Зарегистрирован: 4 года 1 месяц • Статус: Проверено
Скачан: 28 раз • Желающих скачать: 0 • Поблагодарили: 11 раз
 Раздают: 0  |  0 KB/s  ]   Качают: 0  |  0 KB/s  ] 
 Полного источника не было 9 месяцев 
Сообщения
 Добавлено: 2012-10-25 18:58
Top-releaser
Аватара пользователя
Стаж: 6 лет 7 месяцев
Сообщений: 2078
Спасибок: 3229
Лайков: 9
Изображение

И целого мира мало
The World Is Not Enough


Год выпуска: 1999
Страна: Великобритания, США
Слоган: «Bond is Back»
Жанр: боевик, триллер, приключения
Продолжительность: 02:08:20
Перевод: Профессиональный (полное дублирование)
Режиссер: Майкл Эптид
Сценарий: Нил Пёрвис, Роберт Уэйд, Брюс Файрстин, Ян Флеминг
Продюсер: Барбара Брокколи, Майкл Дж. Уилсон, Найджел Голдсак, Энтони Вайе
Оператор: Эдриан Биддл
Композитор: Дэвид Арнольд
В ролях: Пирс Броснан, Софи Марсо, Роберт Карлайл, Дениз Ричардс, Робби Колтрейн, Джуди Денч, Десмонд Ллевелин, Джон Клиз, Мария Грация Кучинотта, Саманта Бонд, Майкл Кичен, Колин Сэлмон
Бюджет: $135 000 000
Сборы в США: $126 943 684
Сборы в мире: $361 832 400
Мировая премьера: 8 ноября 1999
Релиз на Blu-ray: 23 апреля 2009, «Двадцатый Век Фокс СНГ»
Описание: Ренард, техногенный террорист, обладает необыкновенной, смертельно опасной способностью - он не чувствует боли. Способность эта возникла у него в результате пулевого ранения в голову.
Когда Ренард изобретает хитроумную схему, позволяющую взять под контроль все нефтяные ресурсы планеты, Агент 007 становится последней надеждой человечества. Миссия сулит ему как опасности, так и удовольствия - в лице знойной «нефтяной принцессы» и неотразимой ученой. Герою предстоит схватка с безжалостным врагом, который не остановится ни перед чем, претворяя в жизнь свой разрушительный план.

Раздача группы: Изображение

Изображение User Rating: 7.245 (6 826)
Изображение User Rating: 6.30 (94 691)
MPAA: PG-13 - Детям до 13 лет просмотр не желателен
Качество: BDRip, 1080p
Формат: Matroska
Видео: AVC; 1920x816 (2.35:1); 12183 Kbps; 23,976 fps; 0,324 bit/pixel
Аудио №1: English; DTS; 1509 Kbps; CBR; 6 ch; 24 bit
Аудио №2: Russian; DTS; 754 Kbps; CBR; 6 ch; 24 bit - Дубляж
Аудио №3: Russian; AC3; 448 Kbps; CBR; 6 ch - Киномания - отдельно
Аудио №4: Russian; DTS; 755 Kbps; CBR; 6 ch - Гаврилов - отдельно
Аудио №5: Russian; DTS; 755 Kbps; CBR; 6 ch - П. Гланц и И. Королёва - отдельно
Субтитры : Russian, Комментарии режиссера

MediaInfo
Общее
Уникальный идентификатор : 204415287898998769852552955176446067315 (0x99C8F3D0D9294ED9AAC056B3B2380273)
Полное имя : Z:\WWW\TR-Downloads\The.world.is.not.enough.1080p.[R.G.Daredevil]\T.W.I.N.E.1999.BDRip.1080p.DTS.Rus.Eng.Sub.mkv
Формат : Matroska
Версия формата : Version 1
Размер файла : 13,2 Гбайт
Продолжительность : 2 ч. 8 м.
Общий поток : 14,7 Мбит/сек
Название фильма : The world is not enough (1999) BDRip 1080p by GreenRay
Дата кодирования : UTC 2009-04-11 08:41:45
Программа кодирования : mkvmerge v2.6.0 ('Kelly watch the Stars') built on Mar 24 2009 15:23:17
Библиотека кодирования : libebml v0.7.7 + libmatroska v0.8.1

Видео
Идентификатор : 1
Формат : AVC
Формат/Информация : Advanced Video Codec
Профиль формата : High@L4.1
Параметр CABAC формата : Да
Параметр ReFrames формата : 4 кадра
Идентификатор кодека : V_MPEG4/ISO/AVC
Продолжительность : 2 ч. 8 м.
Битрейт : 12,5 Мбит/сек
Ширина : 1920 пикселей
Высота : 816 пикселей
Соотношение сторон : 2,35:1
Частота кадров : 23,976 кадра/сек
Цветовое пространство : YUV
Субдискретизация насыщенности : 4:2:0
Битовая глубина : 8 бит
Тип развёртки : Прогрессивная
Бит/(Пиксели*Кадры) : 0.332
Размер потока : 10,9 Гбайт (83%)
Библиотека кодирования : x264 core 67 r1137M 1fda882
Настройки программы : cabac=1 / ref=4 / deblock=1:-3:-1 / analyse=0x3:0x113 / me=umh / subme=8 / psy_rd=0.8:0.2 / mixed_ref=1 / me_range=32 / chroma_me=1 / trellis=2 / 8x8dct=1 / cqm=0 / deadzone=21,11 / chroma_qp_offset=-3 / threads=6 / nr=0 / decimate=0 / mbaff=0 / bframes=5 / b_pyramid=0 / b_adapt=2 / b_bias=0 / direct=3 / wpredb=1 / keyint=250 / keyint_min=25 / scenecut=40 / rc=2pass / bitrate=12460 / ratetol=1.0 / qcomp=0.60 / qpmin=10 / qpmax=51 / qpstep=4 / cplxblur=20.0 / qblur=0.5 / vbv_maxrate=50000 / vbv_bufsize=50000 / ip_ratio=1.40 / pb_ratio=1.30 / aq=1:1.00
Язык : English
Default : Да
Forced : Нет

Аудио #1
Идентификатор : 2
Формат : DTS
Формат/Информация : Digital Theater Systems
Идентификатор кодека : A_DTS
Продолжительность : 2 ч. 8 м.
Вид битрейта : Постоянный
Битрейт : 1510 Кбит/сек
Каналы : 6 каналов
Расположение каналов : Front: L C R, Side: L R, LFE
Частота : 48,0 КГц
Битовая глубина : 24 бит
Метод сжатия : С потерями
Размер потока : 1,35 Гбайт (10%)
Заголовок : Original DTS 1536 Kbps
Язык : English
Default : Нет
Forced : Нет

Аудио #2
Идентификатор : 3
Формат : DTS
Формат/Информация : Digital Theater Systems
Идентификатор кодека : A_DTS
Продолжительность : 2 ч. 8 м.
Вид битрейта : Постоянный
Битрейт : 755 Кбит/сек
Каналы : 6 каналов
Расположение каналов : Front: L C R, Side: L R, LFE
Частота : 48,0 КГц
Битовая глубина : 24 бит
Метод сжатия : С потерями
Размер потока : 693 Мбайт (5%)
Заголовок : DTS @ 768 Kbps DUB
Язык : Russian
Default : Да
Forced : Нет

Текст #1
Идентификатор : 4
Формат : UTF-8
Идентификатор кодека : S_TEXT/UTF8
Идентификатор кодека/Информация : UTF-8 Plain Text
Заголовок : Комментарии режиссера
Default : Нет
Forced : Нет

Текст #2
Идентификатор : 5
Формат : UTF-8
Идентификатор кодека : S_TEXT/UTF8
Идентификатор кодека/Информация : UTF-8 Plain Text
Заголовок : Полные русские
Язык : Russian
Default : Да
Forced : Нет
Свернуть
"Знаете ли Вы, что..."
  • Это был первый фильм, использовавший технологию объёмного звучания Dolby Digital EX 6.1.
  • Это был последний фильм, в котором роль Q играл Десмонд Ллевелин, который играл эту роль с 1963 года (Из России с любовью). В этом фильме Q представляет Бонду своего приемника (актер Джон Клиз), которого Бонд в шутку называет R (следующая буква английского алфавита). Ллевелин умер в декабре 1999 года.
  • Съемки фильма проходили в Великобритании, Испании, Азербайджане, Казахстане и в Турции.
Свернуть
Скриншоты

Изображение
Изображение
Изображение
Изображение
Изображение
Свернуть
Не в сети
Профиль  
Начать новую темуОтветить на тему  [ 1 сообщение ] 
Вы не можете начинать темы
Вы не можете отвечать на сообщения
Вы не можете редактировать свои сообщения
Вы не можете удалять свои сообщения