Правила форума

  • В этом разделе создание новых тем Запрещено.
  • Для создания новых тем пользуйтесь Корневым разделом DVD и HD фильмы.
Начать новую темуОтветить на тему  [ 1 сообщение ] 
Торрент файл
Размер: 9.31 GB • Зарегистрирован: 5 лет 4 месяца • Статус: Проверено
Скачан: 382 раза • Желающих скачать: 0 • Поблагодарили: 72 раза
 Раздают: 0  |  0 KB/s  ]   Качают: 0  |  0 KB/s  ] 
 Полного источника не было 2 дня 17 часов 
Сообщения
 Добавлено: 2011-07-28 18:59
Top-releaser
Аватара пользователя
Стаж: 6 лет 7 месяцев
Сообщений: 2078
Спасибок: 3230
Лайков: 9
Джеймс Бонд 007: Квант милосердия / James Bond 007: Quantum of Solace

Изображение


Год выпуска: 2008
Страна: США, Великобритания
Жанр: Боевик, триллер, приключения
Продолжительность: 01:46:14
Перевод: Профессиональный (полное дублирование)
Режиссёр: Марк Форстер
В ролях: Дэниэл Крэйг, Ольга Куриленко, Матье Амальрик, Джуди Денч, Джанкарло Джаннини, Джемма Артертон, Джеффри Райт, Дэвид Харбор, Джеспер Кристенсен, Анатоль Таубман
Описание: После предательства Веспер, агент 007 борется с желанием превратить последнее задание в личную вендетту. В поисках истины, Бонд и М допрашивают Мистера Уайта, от которого узнают, что шантажировавшая Веспер Организация намного сложнее и опаснее, чем можно было подумать. Судмедэксперты Mi6 устанавливают связь Веспер с анонимным банковским счётом на Гаити. Там Бонд случайно знакомится с боевой девушкой Камиллой, которая тоже жаждет мести. Через Камиллу Бонд выходит на Доминика Грина, жестокого бизнесмена и не последнего человека в Организации. Побывав в Австрии, Италии и Южной Америке, Бонд узнает о совместном заговоре Грина и генерала Медрано с целью установления контроля над мировыми запасами нефти. Используя возможности Организации и верных ему людей в ЦРУ и британской разведке, Грин обещает генералу свергнуть существующий режим в вымышленной латиноамериканской стране, в обмен на, казалось бы, пустынный участок земли. Бонд прибегает к помощи старых друзей, чтобы установить истину. Чем ближе к установлению личности человека, толкнувшего Веспер на предательство, тем сложнее Бонду быть на шаг впереди ЦРУ, террористов и даже М, чтобы раскрыть злодейский план Грина и остановить его Организацию.

Раздача группы: Изображение

Качество: BDRip
Формат: MKV
Видео кодек: H.264
Аудио кодек: DTS
Видео: 1920x800, 10278 kbps, 23.976 fps
Аудио #1: Русский DTS 5.1, 48 KHz, 768 kbps
Аудио #2: Английский DTS 5.1, 48 KHz, 1536 kbps
Субтитры: Русские, английские

Скриншоты
Изображение

Изображение

Изображение

Изображение
Свернуть

MediaInfo
General
Unique ID : 197014690278984496185520320730671089363 (0x9437A62EA5236C20AF99DAE9363006D3)
Complete name : L:\Квант милосердия\Quantum of Solace.1080p.mkv
Format : Matroska
File size : 9.31 GiB
Duration : 1h 46mn
Overall bit rate : 12.5 Mbps
Encoded date : UTC 2009-03-11 13:34:36
Writing application : mkvmerge v2.5.3 ('Boogie') built on Mar 7 2009 15:00:41
Writing library : libebml v0.7.7 + libmatroska v0.8.1

Video
ID : 1
Format : AVC
Format/Info : Advanced Video Codec
Format profile : High@L4.1
Format settings, CABAC : Yes
Format settings, ReFrames : 5 frames
Codec ID : V_MPEG4/ISO/AVC
Duration : 1h 46mn
Bit rate : 10.3 Mbps
Width : 1 920 pixels
Height : 800 pixels
Display aspect ratio : 2.40:1
Frame rate : 23.976 fps
Color space : YUV
Chroma subsampling : 4:2:0
Bit depth : 8 bits
Scan type : Progressive
Bits/(Pixel*Frame) : 0.279
Stream size : 7.44 GiB (80%)
Writing library : x264 core 67 r1127 8d82fec
Encoding settings : cabac=1 / ref=5 / deblock=1:0:0 / analyse=0x3:0x113 / me=umh / subme=7 / psy_rd=1.0:0.0 / mixed_ref=1 / me_range=16 / chroma_me=1 / trellis=1 / 8x8dct=1 / cqm=0 / deadzone=21,11 / chroma_qp_offset=-2 / threads=6 / nr=0 / decimate=1 / mbaff=0 / bframes=3 / b_pyramid=1 / b_adapt=1 / b_bias=0 / direct=3 / wpredb=1 / keyint=250 / keyint_min=25 / scenecut=40 / rc=2pass / bitrate=10278 / ratetol=1.0 / qcomp=0.60 / qpmin=10 / qpmax=51 / qpstep=4 / cplxblur=20.0 / qblur=0.5 / ip_ratio=1.40 / pb_ratio=1.30 / aq=1:1.00
Language : English

Audio #1
ID : 2
Format : DTS
Format/Info : Digital Theater Systems
Codec ID : A_DTS
Duration : 1h 46mn
Bit rate mode : Constant
Bit rate : 755 Kbps
Channel(s) : 6 channels
Channel positions : Front: L C R, Side: L R, LFE
Sampling rate : 48.0 KHz
Bit depth : 24 bits
Compression mode : Lossy
Stream size : 573 MiB (6%)
Title : DTS 5.1 768 kbps
Language : Russian

Audio #2
ID : 3
Format : DTS
Format/Info : Digital Theater Systems
Codec ID : A_DTS
Duration : 1h 46mn
Bit rate mode : Constant
Bit rate : 1 510 Kbps
Channel(s) : 6 channels
Channel positions : Front: L C R, Side: L R, LFE
Sampling rate : 48.0 KHz
Bit depth : 24 bits
Compression mode : Lossy
Stream size : 1.12 GiB (12%)
Title : DTS 5.1 1536 kbps
Language : English

Text #1
ID : 4
Format : UTF-8
Codec ID : S_TEXT/UTF8
Codec ID/Info : UTF-8 Plain Text
Language : Russian

Text #2
ID : 5
Format : UTF-8
Codec ID : S_TEXT/UTF8
Codec ID/Info : UTF-8 Plain Text
Language : English

Menu
00:00:00.000 : en:00:00:00.000
00:04:10.125 : en:00:04:10.125
00:07:27.530 : en:00:07:27.530
00:10:20.537 : en:00:10:20.537
00:15:16.833 : en:00:15:16.833
00:17:47.650 : en:00:17:47.650
00:20:24.306 : en:00:20:24.306
00:22:51.370 : en:00:22:51.370
00:26:28.420 : en:00:26:28.420
00:29:06.370 : en:00:29:06.370
00:33:16.912 : en:00:33:16.912
00:35:48.104 : en:00:35:48.104
00:39:02.131 : en:00:39:02.131
00:44:19.156 : en:00:44:19.156
00:47:21.797 : en:00:47:21.797
00:52:30.898 : en:00:52:30.898
00:56:29.011 : en:00:56:29.011
01:01:17.173 : en:01:01:17.173
01:04:51.012 : en:01:04:51.012
01:11:04.802 : en:01:11:04.802
01:12:34.433 : en:01:12:34.433
01:17:16.423 : en:01:17:16.423
01:21:05.694 : en:01:21:05.694
01:24:17.719 : en:01:24:17.719
01:29:19.938 : en:01:29:19.938
01:36:15.520 : en:01:36:15.520
01:37:59.248 : en:01:37:59.248
01:41:39.135 : en:01:41:39.135
01:46:14.118 : en:01:46:14.118

Свернуть
Не в сети
Профиль  
Начать новую темуОтветить на тему  [ 1 сообщение ] 
Вы не можете начинать темы
Вы не можете отвечать на сообщения
Вы не можете редактировать свои сообщения
Вы не можете удалять свои сообщения