Правила форума

  • В этом разделе создание новых тем Запрещено.
  • Для создания новых тем пользуйтесь Корневым разделом DVD и HD фильмы.
Начать новую темуОтветить на тему  [ Сообщений: 2 ] 
Торрент файл
Размер: 7.61 GB • Зарегистрирован: 4 года 1 месяц • Статус: Проверено
Скачан: 43 раза • Желающих скачать: 0 • Поблагодарили: 11 раз
 Раздают: 0  |  0 KB/s  ]   Качают: 0  |  0 KB/s  ] 
 Полного источника не было 10 месяцев 
Сообщения
 Добавлено: 2012-10-21 17:44
Top-releaser
Аватара пользователя
Стаж: 6 лет 7 месяцев
Сообщений: 2078
Спасибок: 3230
Лайков: 9
Изображение

Умри, но не сейчас
Die Another Day


Год выпуска: 2002
Страна: США, Великобритания
Слоган: «Events don't get any bigger than...»
Жанр: боевик, триллер, приключения
Продолжительность: 02:12:34
Перевод: Профессиональный (полное дублирование)
Режиссер: Ли Тамахори
Сценарий: Нил Пёрвис, Роберт Уэйд, Ян Флеминг
Продюсер: Барбара Брокколи, Каллум МакДугалл, Энтони Вайе, Майкл Дж. Уилсон
Оператор: Дэвид Тэттерсолл
Композитор: Дэвид Арнольд
В ролях: Пирс Броснан, Холли Берри, Тоби Стивенс, Розамунд Пайк, Рик Юн, Джуди Денч, Джон Клиз, Майкл Мэдсен, Уилл Юн Ли, Кеннет Цан, Эмилио Эчеваррия, Михаил Горевой
Бюджет: $142 000 000
Сборы в США: $160 942 139
Сборы в России: $4 500 000
Сборы в мире: $431 971 116
Мировая премьера: 18 ноября 2002
Релиз на Blu-ray: 18 декабря 2008, «Двадцатый Век Фокс СНГ»
Описание: На этот раз Джеймс Бонд в глубокой конспирации проводит операцию в Северной Корее. Однако его разоблачают, после чего Бонд оказывается за решеткой.
Сумев выбраться из плена только через несколько месяцев 007 возвращается к своей привычной жизни, однако вскоре ему вновь приходится вступить в противоборство со своими корейскими «друзьями» - он узнает о плане британского миллиардера Густава Грейвса создать супероружие, и о его взаимодействии на этом поприще с корейскими военными.

Раздача группы: Изображение

Изображение User Rating: 7.201 (11 987)
Изображение User Rating: 6.00 (102 489)
MPAA: PG-13 - Детям до 13 лет просмотр не желателен
Качество: BDRip, 720p
Формат: Matroska
Видео: AVC; 1280x536 (2.35:1); 5346 Kbps; 23,976 fps; 0,325 bit/pixel
Аудио №1: Russian; DTS; 754 Kbps; CBR; 6 ch; 24 bit
Аудио №2: Russian; AC3; 448 Kbps; CBR; 6 ch
Аудио №3: English; DTS; 1509 Kbps; CBR; 6 ch; 24 bit

Субтитры: Russian, English
MediaInfo
Общее
Уникальный идентификатор : 210421806025569807764545974983643482103 (0x9E4DC40612B9340FA92200783621C7F7)
Полное имя : Z:\WWW\TR-Downloads\Die.Another.Day.720p.[R.G.Daredevil].mkv
Формат : Matroska
Версия формата : Version 1
Размер файла : 7,61 Гбайт
Продолжительность : 2 ч. 12 м.
Общий поток : 8222 Кбит/сек
Дата кодирования : UTC 2008-10-27 12:34:53
Программа кодирования : mkvmerge v2.3.0 ('Freak U') built on Sep 8 2008 18:32:16
Библиотека кодирования : libebml v0.7.7 + libmatroska v0.8.1

Видео
Идентификатор : 1
Формат : AVC
Формат/Информация : Advanced Video Codec
Профиль формата : High@L5.1
Параметр CABAC формата : Да
Параметр ReFrames формата : 8 кадров
Идентификатор кодека : V_MPEG4/ISO/AVC
Продолжительность : 2 ч. 12 м.
Битрейт : 5505 Кбит/сек
Ширина : 1280 пикселей
Высота : 536 пикселей
Соотношение сторон : 2,40:1
Частота кадров : 23,976 кадра/сек
Цветовое пространство : YUV
Субдискретизация насыщенности : 4:2:0
Битовая глубина : 8 бит
Тип развёртки : Прогрессивная
Бит/(Пиксели*Кадры) : 0.335
Размер потока : 4,95 Гбайт (65%)
Библиотека кодирования : x264 core 65 r998M 6768543
Настройки программы : cabac=1 / ref=8 / deblock=1:-2:-1 / analyse=0x3:0x113 / me=umh / subme=6 / psy_rd=1.0:0.0 / mixed_ref=1 / me_range=16 / chroma_me=1 / trellis=1 / 8x8dct=1 / cqm=0 / deadzone=21,11 / chroma_qp_offset=-2 / threads=12 / nr=0 / decimate=1 / mbaff=0 / bframes=16 / b_pyramid=1 / b_adapt=1 / b_bias=0 / direct=3 / wpredb=1 / keyint=250 / keyint_min=25 / scenecut=40(pre) / rc=2pass / bitrate=5505 / ratetol=1.0 / qcomp=0.60 / qpmin=10 / qpmax=51 / qpstep=4 / cplxblur=20.0 / qblur=0.5 / ip_ratio=1.40 / pb_ratio=1.30 / aq=1:1.00
Язык : English
Default : Да
Forced : Нет

Аудио #1
Идентификатор : 2
Формат : DTS
Формат/Информация : Digital Theater Systems
Идентификатор кодека : A_DTS
Продолжительность : 2 ч. 12 м.
Вид битрейта : Постоянный
Битрейт : 755 Кбит/сек
Каналы : 6 каналов
Расположение каналов : Front: L C R, Side: L R, LFE
Частота : 48,0 КГц
Битовая глубина : 24 бит
Метод сжатия : С потерями
Размер потока : 715 Мбайт (9%)
Заголовок : Русский DTS, 6ch 768 kbps
Язык : Russian
Default : Да
Forced : Нет

Аудио #2
Идентификатор : 3
Формат : AC-3
Формат/Информация : Audio Coding 3
Расширение режима : CM (complete main)
Параметр Endianness формата : Big
Идентификатор кодека : A_AC3
Продолжительность : 2 ч. 12 м.
Вид битрейта : Постоянный
Битрейт : 448 Кбит/сек
Каналы : 6 каналов
Расположение каналов : Front: L C R, Side: L R, LFE
Частота : 48,0 КГц
Битовая глубина : 16 бит
Метод сжатия : С потерями
Размер потока : 425 Мбайт (5%)
Заголовок : Русский AC3, 6ch 448 kbps
Язык : Russian
Default : Нет
Forced : Нет

Аудио #3
Идентификатор : 4
Формат : DTS
Формат/Информация : Digital Theater Systems
Идентификатор кодека : A_DTS
Продолжительность : 2 ч. 12 м.
Вид битрейта : Постоянный
Битрейт : 1510 Кбит/сек
Каналы : 6 каналов
Расположение каналов : Front: L C R, Side: L R, LFE
Частота : 48,0 КГц
Битовая глубина : 24 бит
Метод сжатия : С потерями
Размер потока : 1,40 Гбайт (18%)
Заголовок : English DTS, 6ch 1536 kbps
Язык : English
Default : Нет
Forced : Нет

Текст #1
Идентификатор : 5
Формат : UTF-8
Идентификатор кодека : S_TEXT/UTF8
Идентификатор кодека/Информация : UTF-8 Plain Text
Заголовок : Русский
Язык : Russian
Default : Да
Forced : Нет

Текст #2
Идентификатор : 6
Формат : UTF-8
Идентификатор кодека : S_TEXT/UTF8
Идентификатор кодека/Информация : UTF-8 Plain Text
Заголовок : English
Язык : English
Default : Нет
Forced : Нет
Свернуть
"Знаете ли Вы, что..."
  • В фильме в роли стюардессы появляется дочь актера Роджера Мура, исполнителя роли агента 007.
  • «Космическое зеркало», представленное в фильме, - переработанные и расцвеченные кадры документальной съемки советского эксперимента по отражению света, проводившегося на станции «Салют-7». От вымышленного оружия эксперимент отличался гораздо меньшими размерами и мирным назначением.
Свернуть
Скриншоты

Изображение
Изображение
Изображение
Изображение
Изображение
Свернуть
Не в сети
Профиль  
 Добавлено: 2012-10-21 20:58 (спустя 3 часа)
Аватара пользователя
Стаж: 7 лет
Возраст: 34
Сообщений: 43
ееее... первый )
Не в сети
Профиль  
Начать новую темуОтветить на тему  [ Сообщений: 2 ] 
Вы не можете начинать темы
Вы не можете отвечать на сообщения
Вы не можете редактировать свои сообщения
Вы не можете удалять свои сообщения