Правила форума

  • В этом разделе создание новых тем Запрещено.
  • Для создания новых тем пользуйтесь Корневым разделом DVD и HD фильмы.
Начать новую темуОтветить на тему  [ 1 сообщение ] 
Торрент файл
Размер: 16.66 GB • Зарегистрирован: 4 года 1 месяц • Статус: Проверено
Скачан: 29 раз • Желающих скачать: 0 • Поблагодарили: 10 раз
 Раздают: 0  |  0 KB/s  ]   Качают: 0  |  0 KB/s  ] 
 Полного источника не было 1 год 
Сообщения
 Добавлено: 2012-10-21 17:57
Top-releaser
Аватара пользователя
Стаж: 6 лет 7 месяцев
Сообщений: 2078
Спасибок: 3230
Лайков: 9
Изображение

Умри, но не сейчас
Die Another Day


Год выпуска: 2002
Страна: США, Великобритания
Слоган: «Events don't get any bigger than...»
Жанр: боевик, триллер, приключения
Продолжительность: 02:12:34
Перевод: Профессиональный (полное дублирование)
Режиссер: Ли Тамахори
Сценарий: Нил Пёрвис, Роберт Уэйд, Ян Флеминг
Продюсер: Барбара Брокколи, Каллум МакДугалл, Энтони Вайе, Майкл Дж. Уилсон
Оператор: Дэвид Тэттерсолл
Композитор: Дэвид Арнольд
В ролях: Пирс Броснан, Холли Берри, Тоби Стивенс, Розамунд Пайк, Рик Юн, Джуди Денч, Джон Клиз, Майкл Мэдсен, Уилл Юн Ли, Кеннет Цан, Эмилио Эчеваррия, Михаил Горевой
Бюджет: $142 000 000
Сборы в США: $160 942 139
Сборы в России: $4 500 000
Сборы в мире: $431 971 116
Мировая премьера: 18 ноября 2002
Релиз на Blu-ray: 18 декабря 2008, «Двадцатый Век Фокс СНГ»
Описание: На этот раз Джеймс Бонд в глубокой конспирации проводит операцию в Северной Корее. Однако его разоблачают, после чего Бонд оказывается за решеткой.
Сумев выбраться из плена только через несколько месяцев 007 возвращается к своей привычной жизни, однако вскоре ему вновь приходится вступить в противоборство со своими корейскими «друзьями» - он узнает о плане британского миллиардера Густава Грейвса создать супероружие, и о его взаимодействии на этом поприще с корейскими военными.

Раздача группы: Изображение

Изображение User Rating: 7.201 (11 987)
Изображение User Rating: 6.00 (102 489)
MPAA: PG-13 - Детям до 13 лет просмотр не желателен
Качество: BDRip, 1080p
Формат: Matroska
Видео: AVC; 1920x804 (2.35:1); 13028 Kbps; 23,976 fps; 0,352 bit/pixel
Аудио №1: Russian; DTS; 754 Kbps; CBR; 6 ch; 24 bit - Дублированный
Аудио №2: Russian; DTS; 754 Kbps; CBR; 6 ch; 24 bit - Двухголосный закадровый, Гланц и Королева
Аудио №3: Russian; AC3; 448 Kbps; CBR; 6 ch - Многоголосный закадровый, Киномания
Аудио №4: Russian; AC3; 448 Kbps; CBR; 6 ch - Авторский закадровый, Гаврилов
Аудио №5: Russian; AC3; 448 Kbps; CBR; 6 ch - Авторский закадровый, Живов
Аудио №6: English; DTS; 1509 Kbps; CBR; 6 ch; 24 bit - Оригинальный
Аудио №7: English; Vorbis; 80 Kbps; CBR; 2 ch - Комментарии
Аудио №8: English; Vorbis; 80 Kbps; CBR; 2 ch - Комментарии
Аудио №9: English; Vorbis; 80 Kbps; CBR; 2 ch - Комментарии
Субтитры: Russian, English

MediaInfo
Общее
Уникальный идентификатор : 174852131789249803284127745084363151423 (0x838B4BAF68D2600C872C02509B14983F)
Полное имя : Z:\WWW\TR-Downloads\Die.Another.Day.1080p.[R.G.Daredevil].mkv
Формат : Matroska
Версия формата : Version 2
Размер файла : 16,7 Гбайт
Продолжительность : 2 ч. 12 м.
Режим общего битрейта : Переменный
Общий поток : 18,0 Мбит/сек
Название фильма : Esir
Дата кодирования : UTC 2010-11-24 12:54:53
Программа кодирования : mkvmerge v4.4.0 ('Die Wiederkehr') сборка от Oct 31 2010 21:52:48
Библиотека кодирования : libebml v1.0.0 + libmatroska v1.0.0
Attachment : Yes / Yes / Yes

Видео
Идентификатор : 1
Формат : AVC
Формат/Информация : Advanced Video Codec
Профиль формата : High@L4.1
Параметр CABAC формата : Да
Параметр ReFrames формата : 5 кадров
Идентификатор кодека : V_MPEG4/ISO/AVC
Продолжительность : 2 ч. 12 м.
Битрейт : 13,4 Мбит/сек
Ширина : 1920 пикселей
Высота : 804 пикселя
Соотношение сторон : 2,40:1
Частота кадров : 23,976 кадра/сек
Цветовое пространство : YUV
Субдискретизация насыщенности : 4:2:0
Битовая глубина : 8 бит
Тип развёртки : Прогрессивная
Бит/(Пиксели*Кадры) : 0.362
Размер потока : 12,1 Гбайт (72%)
Библиотека кодирования : x264 core 65 r1026M 745a48b
Настройки программы : cabac=1 / ref=5 / deblock=1:-3:-3 / analyse=0x3:0x113 / me=umh / subme=9 / psy_rd=0.8:0.8 / mixed_ref=1 / me_range=32 / chroma_me=1 / trellis=2 / 8x8dct=1 / cqm=2 / deadzone=21,11 / chroma_qp_offset=-4 / threads=3 / nr=0 / decimate=1 / mbaff=0 / bframes=3 / b_pyramid=1 / b_adapt=2 / b_bias=0 / direct=3 / wpredb=1 / keyint=250 / keyint_min=25 / scenecut=40(pre) / rc=2pass / bitrate=13389 / ratetol=1.0 / qcomp=0.60 / qpmin=10 / qpmax=51 / qpstep=4 / cplxblur=20.0 / qblur=0.5 / ip_ratio=1.40 / pb_ratio=1.30 / aq=1:0.80
Язык : English
Default : Да
Forced : Нет

Аудио #1
Идентификатор : 2
Формат : DTS
Формат/Информация : Digital Theater Systems
Идентификатор кодека : A_DTS
Продолжительность : 2 ч. 12 м.
Вид битрейта : Постоянный
Битрейт : 755 Кбит/сек
Каналы : 6 каналов
Расположение каналов : Front: L C R, Side: L R, LFE
Частота : 48,0 КГц
Битовая глубина : 24 бит
Метод сжатия : С потерями
Размер потока : 715 Мбайт (4%)
Заголовок : DTS 5.1 @ 768 kbps |Дублированный|
Язык : Russian
Default : Да
Forced : Нет

Аудио #2
Идентификатор : 3
Формат : DTS
Формат/Информация : Digital Theater Systems
Идентификатор кодека : A_DTS
Продолжительность : 2 ч. 12 м.
Вид битрейта : Постоянный
Битрейт : 755 Кбит/сек
Каналы : 6 каналов
Расположение каналов : Front: L C R, Side: L R, LFE
Частота : 48,0 КГц
Битовая глубина : 24 бит
Метод сжатия : С потерями
Размер потока : 715 Мбайт (4%)
Заголовок : DTS 5.1 @ 768 kbps |Двухголосный закадровый, Гланц и Королёва|
Язык : Russian
Default : Нет
Forced : Нет

Аудио #3
Идентификатор : 4
Формат : AC-3
Формат/Информация : Audio Coding 3
Расширение режима : CM (complete main)
Параметр Endianness формата : Big
Идентификатор кодека : A_AC3
Продолжительность : 2 ч. 12 м.
Вид битрейта : Постоянный
Битрейт : 448 Кбит/сек
Каналы : 6 каналов
Расположение каналов : Front: L C R, Side: L R, LFE
Частота : 48,0 КГц
Битовая глубина : 16 бит
Метод сжатия : С потерями
Размер потока : 425 Мбайт (2%)
Заголовок : AC3 5.1 @ 448 kbps |Многоголосный закадровый, Киномания|
Язык : Russian
Default : Нет
Forced : Нет

Аудио #4
Идентификатор : 5
Формат : AC-3
Формат/Информация : Audio Coding 3
Расширение режима : CM (complete main)
Параметр Endianness формата : Big
Идентификатор кодека : A_AC3
Продолжительность : 2 ч. 12 м.
Вид битрейта : Постоянный
Битрейт : 448 Кбит/сек
Каналы : 6 каналов
Расположение каналов : Front: L C R, Side: L R, LFE
Частота : 48,0 КГц
Битовая глубина : 16 бит
Метод сжатия : С потерями
Размер потока : 425 Мбайт (2%)
Заголовок : AC3 5.1 @ 448 kbps |Авторский закадровый, Гаврилов|
Язык : Russian
Default : Нет
Forced : Нет

Аудио #5
Идентификатор : 6
Формат : AC-3
Формат/Информация : Audio Coding 3
Расширение режима : CM (complete main)
Параметр Endianness формата : Big
Идентификатор кодека : A_AC3
Продолжительность : 2 ч. 12 м.
Вид битрейта : Постоянный
Битрейт : 448 Кбит/сек
Каналы : 6 каналов
Расположение каналов : Front: L C R, Side: L R, LFE
Частота : 48,0 КГц
Битовая глубина : 16 бит
Метод сжатия : С потерями
Размер потока : 425 Мбайт (2%)
Заголовок : AC3 5.1 @ 448 kbps |Авторский закадровый, Живов|
Язык : Russian
Default : Нет
Forced : Нет

Аудио #6
Идентификатор : 7
Формат : DTS
Формат/Информация : Digital Theater Systems
Идентификатор кодека : A_DTS
Продолжительность : 2 ч. 12 м.
Вид битрейта : Постоянный
Битрейт : 1510 Кбит/сек
Каналы : 6 каналов
Расположение каналов : Front: L C R, Side: L R, LFE
Частота : 48,0 КГц
Битовая глубина : 24 бит
Метод сжатия : С потерями
Размер потока : 1,40 Гбайт (8%)
Заголовок : DTS 5.1 @ 1536 kbps |Оригинал|
Язык : English
Default : Нет
Forced : Нет

Аудио #7
Идентификатор : 8
Формат : Vorbis
Параметр Floor формата : 1
Идентификатор кодека : A_VORBIS
Продолжительность : 2 ч. 12 м.
Вид битрейта : Переменный
Битрейт : 80,0 Кбит/сек
Каналы : 2 канала
Частота : 48,0 КГц
Метод сжатия : С потерями
Размер потока : 75,9 Мбайт (0%)
Заголовок : Vorbis 2.0 @ 80 kbps |English Commentary #1|
Библиотека кодирования : libVorbis 1.2 (UTC 2007-06-22)
Язык : English
Default : Нет
Forced : Нет

Аудио #8
Идентификатор : 9
Формат : Vorbis
Параметр Floor формата : 1
Идентификатор кодека : A_VORBIS
Продолжительность : 2 ч. 12 м.
Вид битрейта : Переменный
Битрейт : 80,0 Кбит/сек
Каналы : 2 канала
Частота : 48,0 КГц
Метод сжатия : С потерями
Размер потока : 75,9 Мбайт (0%)
Заголовок : Vorbis 2.0 @ 80 kbps |English Commentary #2|
Библиотека кодирования : libVorbis 1.2 (UTC 2007-06-22)
Язык : English
Default : Нет
Forced : Нет

Аудио #9
Идентификатор : 10
Формат : Vorbis
Параметр Floor формата : 1
Идентификатор кодека : A_VORBIS
Продолжительность : 2 ч. 12 м.
Вид битрейта : Переменный
Битрейт : 80,0 Кбит/сек
Каналы : 2 канала
Частота : 48,0 КГц
Метод сжатия : С потерями
Размер потока : 75,9 Мбайт (0%)
Заголовок : Vorbis 2.0 @ 80 kbps |English Commentary #3|
Библиотека кодирования : libVorbis 1.2 (UTC 2007-06-22)
Язык : English
Default : Нет
Forced : Нет

Текст #1
Идентификатор : 11
Формат : UTF-8
Идентификатор кодека : S_TEXT/UTF8
Идентификатор кодека/Информация : UTF-8 Plain Text
Язык : Russian
Default : Да
Forced : Нет

Текст #2
Идентификатор : 12
Формат : ASS
Идентификатор кодека : S_TEXT/ASS
Идентификатор кодека/Информация : Advanced Sub Station Alpha
Метод сжатия : Без потерь
Заголовок : English
Язык : English
Default : Нет
Forced : Нет
Свернуть
"Знаете ли Вы, что..."
  • В фильме в роли стюардессы появляется дочь актера Роджера Мура, исполнителя роли агента 007.
  • «Космическое зеркало», представленное в фильме, - переработанные и расцвеченные кадры документальной съемки советского эксперимента по отражению света, проводившегося на станции «Салют-7». От вымышленного оружия эксперимент отличался гораздо меньшими размерами и мирным назначением.
Свернуть
Скриншоты

Изображение
Изображение
Изображение
Изображение
Изображение
Свернуть
Не в сети
Профиль  
Начать новую темуОтветить на тему  [ 1 сообщение ] 
Вы не можете начинать темы
Вы не можете отвечать на сообщения
Вы не можете редактировать свои сообщения
Вы не можете удалять свои сообщения