Правила форума

  • В этом разделе создание новых тем Запрещено.
  • Для создания новых тем пользуйтесь Корневым разделом DVD и HD фильмы.
Начать новую темуОтветить на тему  [ Сообщений: 4 ] 
Торрент файл
Размер: 4.67 GB • Зарегистрирован: 4 года 1 месяц • Статус: Проверено
Скачан: 39 раз • Желающих скачать: 0 • Поблагодарили: 13 раз
 Раздают: 0  |  0 KB/s  ]   Качают: 0  |  0 KB/s  ] 
 Полного источника не было 1 год 11 месяцев 
Сообщения
 Добавлено: 2012-10-30 19:52
Аватара пользователя
Стаж: 5 лет 4 месяца
Возраст: 26
Сообщений: 1658
Спасибок: 45803
Лайков: 69
Джеймс Бонд 007: Золотой глаз / James Bond 007: GoldenEye


«Нет никакой замены».

Изображение
Год выпуска: 1995
Страна: США,Великобритания
Жанр: боевик, триллер, приключения.
Продолжительность: 02:10:01
Перевод: Профессиональный (Дублированный "Blu-ray CEE")

Режиссёр: Мартин Кэмпбелл

В ролях: Пирс Броснан, Шон Бин, Изабелла Скорупко, Фамке Янссен, Джо Дон Бейкер, Джуди Денч, Робби Колтрейн, Готтфрид Джон, Алан Камминг, Чеки Карио, Дезмонд Льюэлин, Саманта Бонд, Майкл Кичен, Серена Гордон, Саймон Кунц, Павел Дуглас, Оливье Лажу, Билли Дж. Митчел, Константин Грегори, Минни Драйвер, Мишель Артур, Равиль Исянов, Владимир Миланович, Тревор Байфилд, Питер Майер



Описание: Джеймс Бонд отправляется в Россию на поиски террористов захвативших управление новым секретным оружейным комплексом «Золотой глаз». Разработанное для уничтожения любого компьютерного оборудования, в руках негодяев это оружие превращается в мощнейший инструмент давления на правительства экономически развитых государств. Во время этой чрезвычайно опасной миссии Бонду приходится полетать на вертолете-невидимке, взорвать бронепоезд, совершить увлекательную поездку на танке по Санкт-Петербургу и конечно соблазнить парочку длинноногих красоток.


Изображение



Бюджет: $80 000 000
Мировая премьера:13 ноября 1995.


Качество: BDRip 720p
Формат: MKV
Видео: MPEG-4 AVC, 4232 Кбит/с, 1280x544, 23.976 Кадр/с
Аудио: Русский (AC3, 6 ch, 640 Кбит/c)



Mediainfo
[b]General
Unique ID : 214941598107354598806374278164587664675 (0xA1B43EFA7120455EB100303A2006D523)
Complete name : D:Мои раздачи Die.Another.Day.720p.[NNTT.ORG]
Format : Matroska
Format version : Version 2
File size : 4.67 GiB
Duration : 2h 10mn
Overall bit rate : 6 348 Kbps
Movie name : Die.Another.Day.720p.
Encoded date : UTC 2012-10-04 13:33:08
Writing application : mkvmerge v5.8.0 ('No Sleep / Pillow') built on Sep 2 2012 15:37:04
Writing library : libebml v1.2.3 + libmatroska v1.3.0

Video
ID : 1
Format : AVC
Format/Info : Advanced Video Codec
Format profile : High@L4.1
Format settings, CABAC : Yes
Format settings, ReFrames : 5 frames
Codec ID : V_MPEG4/ISO/AVC
Duration : 2h 10mn
Bit rate : 5 900 Kbps
Width : 1 920 pixels
Height : 816 pixels
Display aspect ratio : 2.35:1
Frame rate mode : Constant
Frame rate : 23.976 fps
Color space : YUV
Chroma subsampling : 4:2:0
Bit depth : 8 bits
Scan type : Progressive
Bits/(Pixel*Frame) : 0.157
Stream size : 4.67 GiB (91%)
Title : Release by Alex260680
Writing library : x264 core 128 r2216M 198a7ea
Encoding settings : cabac=1 / ref=5 / deblock=1:0:0 / analyse=0x3:0x133 / me=umh / subme=11 / psy=1 / psy_rd=1.00:0.10 / mixed_ref=1 / me_range=48 / chroma_me=1 / trellis=2 / 8x8dct=1 / cqm=0 / deadzone=21,11 / fast_pskip=0 / chroma_qp_offset=-3 / threads=12 / lookahead_threads=2 / sliced_threads=0 / nr=0 / decimate=0 / interlaced=0 / bluray_compat=0 / constrained_intra=0 / bframes=5 / b_pyramid=2 / b_adapt=2 / b_bias=0 / direct=3 / weightb=1 / open_gop=0 / weightp=2 / keyint=240 / keyint_min=23 / scenecut=40 / intra_refresh=0 / rc=2pass / mbtree=0 / bitrate=5900 / ratetol=1.0 / qcomp=0.60 / qpmin=0 / qpmax=69 / qpstep=4 / cplxblur=20.0 / qblur=0.5 / ip_ratio=1.40 / pb_ratio=1.30 / aq=1:1.00
Language : English
Default : Yes
Forced : No

Audio
ID : 2
Format : AC-3
Format/Info : Audio Coding 3
Mode extension : CM (complete main)
Format settings, Endianness : Big
Codec ID : A_AC3
Duration : 2h 10mn
Bit rate mode : Constant
Bit rate : 448 Kbps
Channel(s) : 6 channels
Channel positions : Front: L C R, Side: L R, LFE
Sampling rate : 48.0 KHz
Bit depth : 16 bits
Compression mode : Lossy
Stream size : 417 MiB (7%)
Title : DUB (Blu-ray CEE)
Language : Russian
Default : Yes
Forced : No

Text #1
ID : 3
Format : UTF-8
Codec ID : S_TEXT/UTF8
Codec ID/Info : UTF-8 Plain Text
Language : Russian
Default : No
Forced : No

Text #2
ID : 4
Format : UTF-8
Codec ID : S_TEXT/UTF8
Codec ID/Info : UTF-8 Plain Text
Language : English
Default : No
Forced : No

Menu
00:00:00.000 : en:Chapter1
00:10:29.962 : en:Chapter2
00:13:20.132 : en:Chapter3
00:17:06.316 : en:Chapter4
00:24:23.378 : en:Chapter5
00:27:56.091 : en:Chapter6
00:31:05.864 : en:Chapter7
00:36:24.056 : en:Chapter8
00:38:57.335 : en:Chapter9
00:43:19.430 : en:Chapter10
00:48:11.680 : en:Chapter11
00:50:29.192 : en:Chapter12
00:53:08.101 : en:Chapter13
00:56:08.073 : en:Chapter14
00:57:47.005 : en:Chapter15
01:03:42.026 : en:Chapter16
01:06:16.055 : en:Chapter17
01:11:04.969 : en:Chapter18
01:13:20.270 : en:Chapter19
01:17:49.456 : en:Chapter20
01:19:54.456 : en:Chapter21
01:25:07.936 : en:Chapter22
01:30:50.611 : en:Chapter23
01:34:26.160 : en:Chapter24
01:40:12.297 : en:Chapter25
01:44:34.268 : en:Chapter26
01:47:31.445 : en:Chapter27
01:50:41.343 : en:Chapter28
01:56:01.120 : en:Chapter29
02:00:53.704 : en:Chapter30
02:04:35.009 : en:Chapter31
02:06:33.002 : en:Chapter32
02:10:00.167 : en:Chapter33
Свернуть

Трейлер
Свернуть

Скриншоты
Изображение
Изображение
Изображение
Свернуть
_________________
S.T.A.L.K.E.R.: Lost Alpha
Не в сети
Профиль  
 Добавлено: 2012-10-30 21:32 (спустя 1 час 39 минут)
Аватара пользователя
Стаж: 4 года 3 месяца
Возраст: 31
Сообщений: 200
Спасибок: 195
Ооо круто :sh_ok:
Не в сети
Профиль  
 Добавлено: 2012-11-18 13:03 (спустя 18 дней)
Стаж: 4 года 7 месяцев
Сообщений: 1
А почему написано золотой глаз, а файл, который закачивается, называется умри но не сейчас?
Не в сети
Профиль  
 Добавлено: 2012-11-18 16:09 (спустя 3 часа)
Стаж: 6 лет
Сообщений: 2
тот же вопрос. что за фильм то в итоге по торенту качается?
Не в сети
Профиль  
Начать новую темуОтветить на тему  [ Сообщений: 4 ] 
Вы не можете начинать темы
Вы не можете отвечать на сообщения
Вы не можете редактировать свои сообщения
Вы не можете удалять свои сообщения