Правила форума

  • В этом разделе создание новых тем Запрещено.
  • Для создания новых тем пользуйтесь Корневым разделом DVD и HD фильмы.
Начать новую темуОтветить на тему  [ Сообщений: 5 ] 
Торрент файл
Размер: 6.22 GB • Зарегистрирован: 5 лет 2 месяца • Статус: Проверено
Скачан: 59 раз • Желающих скачать: 0 • Поблагодарили: 17 раз
 Раздают: 0  |  0 KB/s  ]   Качают: 0  |  0 KB/s  ] 
 Полного источника не было 2 года 11 месяцев 
Сообщения
 Добавлено: 2011-09-28 19:18
Top-releaser
Аватара пользователя
Стаж: 8 лет 9 месяцев
Сообщений: 479
Спасибок: 20189
Лайков: 16
Джейн Эйр

Jane Eyre

Изображение


Год выпуска: 2011
Страна: Изображение США, Изображение Великобритания
Жанр: Драма, мелодрама
Продолжительность: 02:00:10
Перевод: Профессиональный (полное дублирование), Профессиональный(многоголосый), Оригинал
Субтитры: английские


Режиссёр: Кэри Фукунага / Cary Fukunaga

В ролях: Миа Васиковска, Майкл Фассбендер, Джейми Белл, Су Эллиот, Холли Грэйнджер, Тэмзин Мерчант, Амелия Кларксон, Крэйг Робертс, Салли Хокинс, Элизабет Хопли

Описание: Викторианская Англия. После восьми лет, проведенных в пансионе для бедных девочек, сирота Джейн Эйр получает место гувернантки в Торнфилде — вотчине Эдварда Ферфакса Рочестера. Хозяин поместья редко наведывается в родные края, а в его отсутствие Джейн должна присматривать за восьмилетней Адель Варанс — воспитанницей аристократа. И вот однажды Рочестер возвращается. Так начинается одна из самых известных романтических историй в европейской литературе и мировом кино…


Качество: BDRip 720p R5
Формат: MKV

Видео: AVC, 1280x696 (1.839) at 23.976 fps, 5000 kb/s

Аудио 1: AC3, 448 Кбит/сек, 6 канала(ов), 48,0 КГц (Дубляж)
Аудио 2: AC3, 448 Кбит/сек, 6 канала(ов), 48,0 КГц (Многоголосый)
Аудио 3: DTS, 1510 Кбит/сек, 6 канала(ов), 48,0 КГц (Оригинал)
Раздача: Изображение

Изображение
MediaInfo

Общее
Уникальный идентификатор : 212402774729187350959270493820639050057 (0x9FCB49524F23F09B92DDDC6F8E7CF949)
Полное имя : C:\Users\Домашний\Desktop\Jane Eyre.2011[nntt].720p.mkv
Формат : Matroska
Размер файла : 6,22 Гбайт
Продолжительность : 2 ч. 0 м.
Общий поток : 7405 Кбит/сек
Название фильма : -=R.G.Bee-Media=-
Дата кодирования : UTC 2011-09-27 18:57:54
Программа кодирования : mkvmerge v4.0.0 ('The Stars were mine') сборка от Jun 6 2010 16:18:42
Библиотека кодирования : libebml v1.0.0 + libmatroska v1.0.0

Видео
Идентификатор : 1
Формат : AVC
Формат/Информация : Advanced Video Codec
Профиль формата : High@L4.1
Параметр CABAC формата : Да
Параметр ReFrames формата : 5 кадры
Идентификатор кодека : V_MPEG4/ISO/AVC
Продолжительность : 2 ч. 0 м.
Битрейт : 5000 Кбит/сек
Ширина : 1280 пикс.
Высота : 696 пикс.
Соотношение сторон : 16:9
Частота кадров : 23,976 кадр/сек
Цветовое пространство : YUV
Подвыборка цветности : 4:2:0
Битовая глубина : 8 бит
Тип развёртки : Прогрессивная
Бит/(Пиксели*Кадры) : 0.234
Размер потока : 4,07 Гбайт (66%)
Библиотека кодирования : x264 core 116 r2044 392e762
Настройки программы : cabac=1 / ref=5 / deblock=1:0:0 / analyse=0x3:0x113 / me=umh / subme=8 / psy=1 / psy_rd=1.00:0.00 / mixed_ref=1 / me_range=16 / chroma_me=1 / trellis=1 / 8x8dct=1 / cqm=0 / deadzone=21,11 / fast_pskip=1 / chroma_qp_offset=-2 / threads=12 / sliced_threads=0 / nr=0 / decimate=1 / interlaced=0 / bluray_compat=0 / constrained_intra=0 / bframes=3 / b_pyramid=2 / b_adapt=2 / b_bias=0 / direct=3 / weightb=1 / open_gop=0 / weightp=2 / keyint=240 / keyint_min=24 / scenecut=40 / intra_refresh=0 / rc_lookahead=50 / rc=2pass / mbtree=1 / bitrate=5000 / ratetol=1.0 / qcomp=0.60 / qpmin=0 / qpmax=69 / qpstep=4 / cplxblur=20.0 / qblur=0.5 / ip_ratio=1.40 / aq=1:1.00
Язык : English

Аудио #1
Идентификатор : 2
Формат : AC-3
Формат/Информация : Audio Coding 3
Расширение режима : CM (complete main)
Идентификатор кодека : A_AC3
Продолжительность : 2 ч. 0 м.
Вид битрейта : Постоянный
Битрейт : 448 Кбит/сек
Канал(ы) : 6 канала(ов)
Расположение каналов : Front: L C R, Side: L R, LFE
Частота : 48,0 КГц
Битовая глубина : 16 бит
Метод сжатия : С потерями
Размер потока : 385 Мбайт (6%)
Заголовок : DR5
Язык : Russian

Аудио #2
Идентификатор : 3
Формат : AC-3
Формат/Информация : Audio Coding 3
Расширение режима : CM (complete main)
Идентификатор кодека : A_AC3
Продолжительность : 2 ч. 0 м.
Вид битрейта : Постоянный
Битрейт : 448 Кбит/сек
Канал(ы) : 6 канала(ов)
Расположение каналов : Front: L C R, Side: L R, LFE
Частота : 48,0 КГц
Битовая глубина : 16 бит
Метод сжатия : С потерями
Размер потока : 385 Мбайт (6%)
Заголовок : P
Язык : Russian

Аудио #3
Идентификатор : 4
Формат : DTS
Формат/Информация : Digital Theater Systems
Идентификатор кодека : A_DTS
Продолжительность : 2 ч. 0 м.
Вид битрейта : Постоянный
Битрейт : 1510 Кбит/сек
Канал(ы) : 6 канала(ов)
Расположение каналов : Front: L C R, Side: L R, LFE
Частота : 48,0 КГц
Битовая глубина : 24 бит
Метод сжатия : С потерями
Задержка видео : 11 мс.
Размер потока : 1,27 Гбайт (20%)
Язык : English

Текст
Идентификатор : 5
Формат : UTF-8
Идентификатор кодека : S_TEXT/UTF8
Идентификатор кодека/Информация : UTF-8 Plain Text
Язык : English

Меню
00:00:00.000 : en:00:00:00.000
00:05:12.062 : en:00:05:12.062
00:10:18.743 : en:00:10:18.743
00:14:05.511 : en:00:14:05.511
00:20:10.292 : en:00:20:10.292
00:26:53.654 : en:00:26:53.654
00:32:25.986 : en:00:32:25.986
00:39:16.563 : en:00:39:16.563
00:47:26.343 : en:00:47:26.343
00:52:20.471 : en:00:52:20.471
01:01:29.019 : en:01:01:29.019
01:05:18.915 : en:01:05:18.915
01:11:30.786 : en:01:11:30.786
01:14:13.157 : en:01:14:13.157
01:21:07.237 : en:01:21:07.237
01:28:53.119 : en:01:28:53.119
01:36:10.473 : en:01:36:10.473
01:42:25.139 : en:01:42:25.139
01:47:25.147 : en:01:47:25.147
01:54:19.811 : en:01:54:19.811

Свернуть
Скриншоты
Изображение
Изображение
Изображение
Изображение
Изображение
Свернуть
_________________
Изображение
Изображение
Не в сети
Профиль  
 Добавлено: 2013-02-15 20:33 (спустя 1 год 4 месяца)
Стаж: 7 лет
Сообщений: 4
Джокер
Пожалуйста, встаньте на раздачу! Очень хочется посмотреть фильм :)
Не в сети
Профиль  
 Добавлено: 2013-02-15 22:30 (спустя 1 час 57 минут)
Стаж: 7 лет
Сообщений: 4
Огромное спасибо! :ya_hoo_oo:
Не в сети
Профиль  
 Добавлено: 2013-02-15 23:33 (спустя 1 час 2 минуты)
Стаж: 7 лет
Сообщений: 4
Только не уходите с раздачи, скорости нет (
Не в сети
Профиль  
 Добавлено: 2015-10-22 01:13 (спустя 2 года 8 месяцев)
Стаж: 9 лет
Сообщений: 28
Спасибок: 33
Раздайте пожалуйста.
_________________
``````````````````
http://www.bindu.ru
Не в сети
Профиль  
Начать новую темуОтветить на тему  [ Сообщений: 5 ] 
Вы не можете начинать темы
Вы не можете отвечать на сообщения
Вы не можете редактировать свои сообщения
Вы не можете удалять свои сообщения