Правила форума

  • В этом разделе создание новых тем Запрещено.
  • Для создания новых тем пользуйтесь Корневым разделом DVD и HD фильмы.
Начать новую темуОтветить на тему  [ Сообщений: 4 ] 
Торрент файл
Размер: 9.12 GB • Зарегистрирован: 5 лет 3 месяца • Статус: Проверено
Скачан: 165 раз • Желающих скачать: 0 • Поблагодарили: 26 раз
 Раздают: 0  |  0 KB/s  ]   Качают: 0  |  0 KB/s  ] 
 Полного источника не было 3 года 1 месяц 
Сообщения
 Добавлено: 2011-09-03 23:09
Top-releaser
Аватара пользователя
Стаж: 8 лет 7 месяцев
Сообщений: 1286
Спасибок: 3420
Лайков: 7
Джейн Эйр / Jane Eyre

Изображение
Год выпуска: 2011
Страна: США, Великобритания
Жанр: драма, мелодрама
Продолжительность: 02:00:10
Перевод: Оригинальный, Профессиональный (многоголосый, закадровый)

Режиссер: Кэри Фукунага
Сценарий: Шарлотта Бронте, Моира Буффини
Продюсер: Элисон Оуэн, Пол Триджбитс, Маири Бетт, Ханна Фаррелл, Питер Хэмпден
Оператор: Адриано Голдман
Композитор: Дарио Марианелли

В ролях: Миа Васиковска, Майкл Фассбендер, Джейми Белл, Джуди Денч, Су Эллиот, Холли Грэйнджер, Тэмзин Мерчант, Амелия Кларксон, Крэйг Робертс, Салли Хокинс, Элизабет Хопли, Джэйн Вайзенер
Описание: Викторианская Англия. После восьми лет, проведенных в пансионе для бедных девочек, сирота Джейн Эйр получает место гувернантки в Торнфилде - вотчине Эдварда Ферфакса Рочестера. Хозяин поместья редко наведывается в родные края, а в его отсутствие Джейн должна присматривать за восьмилетней Адель Варанс - воспитанницей аристократа. И вот однажды Рочестер возвращается. Так начинается одна из самых известных романтических историй в европейской литературе и мировом кино.

Раздача: Изображение

Изображение


Сборы в мире: $15 439 366
Сборы в США: $11 242 660
Мировая премьера: 9 марта 2011
Изображение Релиз на DVD: 29 сентября 2011, «Вольга»
Изображение Релиз на Blu-ray: 29 сентября 2011, «Вольга»
MPAA: Изображение
Качество: BDRip
Формат: Matroska
Видео: AVC; 1920x1040 (16:9); 8690 Kbps; 23,976 fps; 0,182 bpp
Аудио №1: Russian; AC3; 448 Kbps; CBR; 6 ch
Аудио №2: English; DTS; 1509 Kbps; CBR; 6 ch; 24 bit

MediaInfo
Общее
Уникальный идентификатор : 198632531096707585297874401729034386603 (0x956F3BE498BCE5FEB863DE61B3B8FCAB)
Полное имя : E:\Видео\Dzhejn.Jejr.2011.x264.BDRip.1080p[R.G.KiNOvNiNO].mkv
Формат : Matroska
Версия формата : Version 1
Размер файла : 9,12 Гбайт
Продолжительность : 2 ч. 0 м.
Общий поток : 10,9 Мбит/сек
Дата кодирования : UTC 2011-09-02 20:18:48
Программа кодирования : mkvmerge v2.4.0 ('Fumbling Towards Ecstasy') built on Oct 11 2008 20:13:15
Библиотека кодирования : libebml v0.7.7 + libmatroska v0.8.1

Видео
Идентификатор : 1
Формат : AVC
Формат/Информация : Advanced Video Codec
Профиль формата : High@L4.1
Параметр CABAC формата : Да
Параметр ReFrames формата : 4 кадра
Идентификатор кодека : V_MPEG4/ISO/AVC
Продолжительность : 2 ч. 0 м.
Битрейт : 8908 Кбит/сек
Ширина : 1920 пикс.
Высота : 1040 пикс.
Соотношение сторон : 16:9
Частота кадров : 23,976 кадр/сек
Цветовое пространство : YUV
Подвыборка цветности : 4:2:0
Битовая глубина : 8 бит
Тип развёртки : Прогрессивная
Бит/(Пиксели*Кадры) : 0.186
Размер потока : 7,29 Гбайт (80%)
Заголовок : Джейн Эйр / Jane Eyre (2011)
Библиотека кодирования : x264 core 116 r2044 392e762
Настройки программы : cabac=1 / ref=4 / deblock=1:0:0 / analyse=0x3:0x113 / me=umh / subme=8 / psy=1 / psy_rd=1.00:0.00 / mixed_ref=1 / me_range=16 / chroma_me=1 / trellis=1 / 8x8dct=1 / cqm=0 / deadzone=21,11 / fast_pskip=1 / chroma_qp_offset=-2 / threads=12 / sliced_threads=0 / nr=0 / decimate=1 / interlaced=0 / bluray_compat=0 / constrained_intra=0 / bframes=3 / b_pyramid=2 / b_adapt=2 / b_bias=0 / direct=3 / weightb=1 / open_gop=0 / weightp=2 / keyint=240 / keyint_min=24 / scenecut=40 / intra_refresh=0 / rc_lookahead=50 / rc=2pass / mbtree=1 / bitrate=8908 / ratetol=1.0 / qcomp=0.60 / qpmin=0 / qpmax=69 / qpstep=4 / cplxblur=20.0 / qblur=0.5 / ip_ratio=1.40 / aq=1:1.00
Язык : English

Аудио #1
Идентификатор : 2
Формат : AC-3
Формат/Информация : Audio Coding 3
Расширение режима : CM (complete main)
Идентификатор кодека : A_AC3
Продолжительность : 2 ч. 0 м.
Вид битрейта : Постоянный
Битрейт : 448 Кбит/сек
Каналы : 6 каналов
Расположение каналов : Front: L C R, Side: L R, LFE
Частота : 48,0 КГц
Битовая глубина : 16 бит
Метод сжатия : С потерями
Размер потока : 385 Мбайт (4%)
Заголовок : AC3 448 kbps - MVO
Язык : Russian

Аудио #2
Идентификатор : 3
Формат : DTS
Формат/Информация : Digital Theater Systems
Идентификатор кодека : A_DTS
Продолжительность : 2 ч. 0 м.
Вид битрейта : Постоянный
Битрейт : 1510 Кбит/сек
Каналы : 6 каналов
Расположение каналов : Front: L C R, Side: L R, LFE
Частота : 48,0 КГц
Битовая глубина : 24 бит
Метод сжатия : С потерями
Задержка видео : 11 мс.
Размер потока : 1,27 Гбайт (14%)
Заголовок : DTS 1510 kbps
Язык : English

Текст
Идентификатор : 4
Формат : UTF-8
Идентификатор кодека : S_TEXT/UTF8
Идентификатор кодека/Информация : UTF-8 Plain Text
Язык : English

Меню
00:00:00.000 : en:00:00:00.000
00:05:12.062 : en:00:05:12.062
00:10:18.743 : en:00:10:18.743
00:14:05.511 : en:00:14:05.511
00:20:10.292 : en:00:20:10.292
00:26:53.654 : en:00:26:53.654
00:32:25.986 : en:00:32:25.986
00:39:16.563 : en:00:39:16.563
00:47:26.343 : en:00:47:26.343
00:52:20.471 : en:00:52:20.471
01:01:29.019 : en:01:01:29.019
01:05:18.915 : en:01:05:18.915
01:11:30.786 : en:01:11:30.786
01:14:13.157 : en:01:14:13.157
01:21:07.237 : en:01:21:07.237
01:28:53.119 : en:01:28:53.119
01:36:10.473 : en:01:36:10.473
01:42:25.139 : en:01:42:25.139
01:47:25.147 : en:01:47:25.147
01:54:19.811 : en:01:54:19.811

Свернуть

Знаете ли Вы, что...
  • Первоначально на главную роль претендовала Эллен Пэйдж, но впоследствии она отказалась от проекта.
Свернуть
Скриншоты
Изображение
Изображение
Изображение
Изображение
Изображение
Изображение
Изображение

Свернуть

Изображение
Не в сети
Профиль  
 Добавлено: 2011-09-05 08:16 (спустя 1 день 9 часов)
Кинокомментатор
Аватара пользователя
Стаж: 9 лет 1 месяц
Сообщений: 1332
Лайков: 54
другой перевод будет?
или даже в кинотеатрах будет многоголоска?
_________________
Я ВКонтакте
Не в сети
Профиль  
 Добавлено: 2011-09-05 19:30 (спустя 11 часов)
Top-releaser
Аватара пользователя
Стаж: 8 лет 7 месяцев
Сообщений: 1286
Спасибок: 3420
Лайков: 7

Bronks:

другой перевод будет?
или даже в кинотеатрах будет многоголоска?
Будет дубляж, 29 сентября официальный релиз.
А в кино уже было походу)))
Не в сети
Профиль  
 Добавлено: 2011-09-06 10:33 (спустя 15 часов)
Кинокомментатор
Аватара пользователя
Стаж: 9 лет 1 месяц
Сообщений: 1332
Лайков: 54
круто) подождём-с)
_________________
Я ВКонтакте
Не в сети
Профиль  
Начать новую темуОтветить на тему  [ Сообщений: 4 ] 
Вы не можете начинать темы
Вы не можете отвечать на сообщения
Вы не можете редактировать свои сообщения
Вы не можете удалять свои сообщения