Правила форума

  • В этом разделе создание новых тем Запрещено.
  • Для создания новых тем пользуйтесь Корневым разделом DVD и HD фильмы.
Начать новую темуОтветить на тему  [ Сообщений: 2 ] 
Торрент файл
Размер: 6.33 GB • Зарегистрирован: 3 года 1 месяц • Статус: Проверено
Скачан: 41 раз • Желающих скачать: 0 • Поблагодарили: 17 раз
 Раздают: 0  |  0 KB/s  ]   Качают: 0  |  0 KB/s  ] 
 Полного источника не было 12 дней 
Сообщения
 Добавлено: 2013-10-31 21:50
Стаж: 6 лет 1 месяц
Сообщений: 7
Спасибок: 17
Джобс: Империя соблазна / jOBS

Изображение


Год выпуска: 2013
Страна: США
Жанр: драма, биография
Продолжительность: 02:07:29
Перевод: Профессиональный (дубляж)

Режиссёр: Джошуа Майкл Штерн / Joshua Michael Stern
В ролях: Эштон Кутчер, Дермот Малруни, Джош Гад, Лукас Хаас, Дж.К. Симмонс, Лесли Энн Уоррен, Рон Элдард, Ана О’Райли, Джон Гец, Джеймс Вудс
Описание: Он был молод, красив и чертовски талантлив. Начав с нуля, он смог построить мировую империю соблазна. О нем грезили женщины. Ему завидовали мужчины. Он соблазнил миллионы. Его звали Стив Джобс.


Качество: BDRip
Формат: BDRip 720p
Видео кодек: V_MPEG4/ISO/AVC
Аудио кодек: AC3 (Dolby Digital)
Видео: AVC, 1280x536 (2.40:1), 6137 kbps, 23,976 fps, 0,373 bpp
Аудио #1: русский /AC3 / 5.1 / 48 kHz / 640 kbps / 16 bit [Профессиональный (дубляж)]
Аудио #2: английский / AC3 / 2.0 / 48 kHz / 192 kbps / 16 bit |Оригинал, WEBRip|
Скриншоты
Изображение
Изображение
Изображение
Свернуть

MediaInfo
General
Unique ID : 247185939450909836033867299042497792692 (0xB9F647BF401B351D97014AED21820AB4)
Complete name : D:\jOBS.2013.BDRip.720p.Dub.Orig.mkv
Format : Matroska
Format version : Version 4 / Version 2
File size : 6.33 GiB
Duration : 2h 7mn
Overall bit rate : 7 111 Kbps
Encoded date : UTC 2013-10-31 07:14:59
Writing application : mkvmerge v6.2.0 ('Promised Land') built on Apr 28 2013 12:22:01
Writing library : libebml v1.3.0 + libmatroska v1.4.0

Video
ID : 1
Format : AVC
Format/Info : Advanced Video Codec
Format profile : High@L4.1
Format settings, CABAC : Yes
Format settings, ReFrames : 9 frames
Codec ID : V_MPEG4/ISO/AVC
Duration : 2h 7mn
Bit rate : 6 138 Kbps
Width : 1 280 pixels
Height : 536 pixels
Display aspect ratio : 2.40:1
Frame rate : 23.976 fps
Color space : YUV
Chroma subsampling : 4:2:0
Bit depth : 8 bits
Scan type : Progressive
Bits/(Pixel*Frame) : 0.373
Stream size : 5.47 GiB (86%)
Writing library : x264 core 133 r2334 a3ac64b
Encoding settings : cabac=1 / ref=9 / deblock=1:-2:-2 / analyse=0x3:0x133 / me=umh / subme=11 / psy=1 / psy_rd=1.00:0.15 / mixed_ref=1 / me_range=32 / chroma_me=1 / trellis=2 / 8x8dct=1 / cqm=0 / deadzone=21,11 / fast_pskip=0 / chroma_qp_offset=-3 / threads=12 / lookahead_threads=3 / sliced_threads=0 / nr=0 / decimate=1 / interlaced=0 / bluray_compat=0 / constrained_intra=0 / bframes=12 / b_pyramid=2 / b_adapt=2 / b_bias=0 / direct=3 / weightb=1 / open_gop=0 / weightp=2 / keyint=240 / keyint_min=23 / scenecut=40 / intra_refresh=0 / rc_lookahead=60 / rc=crf / mbtree=0 / crf=16.9 / qcomp=0.60 / qpmin=0 / qpmax=69 / qpstep=4 / vbv_maxrate=62500 / vbv_bufsize=78125 / crf_max=0.0 / nal_hrd=none / ip_ratio=1.40 / pb_ratio=1.30 / aq=2:1.00
Language : English
Default : Yes
Forced : No

Audio #1
ID : 2
Format : AC-3
Format/Info : Audio Coding 3
Mode extension : CM (complete main)
Codec ID : A_AC3
Duration : 2h 7mn
Bit rate mode : Constant
Bit rate : 640 Kbps
Channel(s) : 6 channels
Channel positions : Front: L C R, Side: L R, LFE
Sampling rate : 48.0 KHz
Bit depth : 16 bits
Compression mode : Lossy
Stream size : 584 MiB (9%)
Title : Dub
Language : Russian
Default : Yes
Forced : No

Audio #2
ID : 3
Format : AC-3
Format/Info : Audio Coding 3
Mode extension : CM (complete main)
Codec ID : A_AC3
Duration : 2h 7mn
Bit rate mode : Constant
Bit rate : 192 Kbps
Channel(s) : 2 channels
Channel positions : Front: L R
Sampling rate : 48.0 KHz
Bit depth : 16 bits
Compression mode : Lossy
Stream size : 175 MiB (3%)
Title : Orig
Language : English
Default : No
Forced : No
Свернуть


Последний раз редактировалось sd127 2013-11-03 16:24, всего редактировалось 2 раз(а).
Не в сети
Профиль  
 Добавлено: 2013-11-03 12:16 (спустя 2 дня 14 часов)
Модератор
Аватара пользователя
Стаж: 8 лет 11 месяцев
Сообщений: 516
Спасибок: 26888
Лайков: 1
Постер должен содержать информацию о российском возрастном рейтинге.
Разрешение скриншота должно строго совпадать с разрешением, указанным в технических данных видео.
Для HD и HQRip-ов необходимы скриншоты в формате PNG, для остальных форматов PNG так же рекомендуется.
Не в сети
Профиль  
Начать новую темуОтветить на тему  [ Сообщений: 2 ] 
Вы не можете начинать темы
Вы не можете отвечать на сообщения
Вы не можете редактировать свои сообщения
Вы не можете удалять свои сообщения