Правила форума

  • В этом разделе создание новых тем Запрещено.
  • Для создания новых тем пользуйтесь Корневым разделом DVD и HD фильмы.
Начать новую темуОтветить на тему  [ Сообщений: 5 ] 
Торрент файл
Размер: 8.78 GB • Зарегистрирован: 3 года 1 месяц • Статус: Проверено
Скачан: 143 раза • Желающих скачать: 0 • Поблагодарили: 60 раз
 Раздают: 0  |  0 KB/s  ]   Качают: 0  |  0 KB/s  ] 
 Полного источника не было 10 дней 
Сообщения
 Добавлено: 2013-11-04 17:22
Аватара пользователя
Стаж: 9 лет 1 месяц
Сообщений: 7940
Спасибок: 122160
Лайков: 1191
Джобс: Империя соблазна / jOBS

«Некоторые видят возможности, другие меняют эти возможности»

Изображение


Год выпуска: 2013
Страна: Изображение США
Жанр: драма, биография
Продолжительность: 02:02:16
Перевод: Профессиональный (полное дублирование) [Лицензия]


Режиссер: Джошуа Майкл Штерн
Сценарий: Мэтт Уайтели
Продюсер: Артур Бенжамин, Рональд Булард, Майкл Кэйн
Оператор: Рассел Карпентер
Композитор: Джон Дебни

В ролях: Эштон Кутчер, Дермот Малруни, Джош Гад, Лукас Хаас, Дж.К. Симмонс, Лесли Энн Уоррен, Рон Элдард, Ана О’Райли, Джон Гец, Джеймс Вудс

Описание: Он был молод, красив и чертовски талантлив. Начав с нуля, он смог построить мировую империю соблазна. О нем грезили женщины. Ему завидовали мужчины. Он соблазнил миллионы. Его звали Стив Джобс.

Изображение Изображение

Раздача группы: Изображение

Качество: BDRip (1080p)
Формат: Matroska
Видео: MPEG-4 AVC, 7674 Кбит/с, 1920x804
Аудио №1: Русский (DTS, 48,0 КГц, 6 ch, 1510 Кбит/c)
Аудио №2: Русский (AC3, 48,0 КГц, 6 ch, 448 Кбит/c)
Аудио №3: Английский (AC3, 48,0 КГц, 6 ch, 448 Кбит/c)

MediaInfo
Общее
Уникальный идентификатор : 217649577289128911629430818629521242562 (0xA3BDC8A8FAF931988469F746FB4FF9C2)
Полное имя : C:\Фильмы\jOBS.2013.BDRip.1080p.R.G.Daredevil.mkv
Формат : Matroska
Версия формата : Version 2
Размер файла : 8,78 Гбайт
Продолжительность : 2 ч. 2 м.
Общий поток : 10,3 Мбит/сек
Название фильма : jOBS.2013.BDRip.1080p.mkv
Дата кодирования : UTC 2013-11-04 10:23:06
Программа кодирования : mkvmerge v6.3.0 ('You can't stop me!') built on Jun 28 2013 20:09:41
Библиотека кодирования : libebml v1.3.0 + libmatroska v1.4.0

Видео
Идентификатор : 1
Формат : AVC
Формат/Информация : Advanced Video Codec
Профиль формата : High@L4.1
Параметр CABAC формата : Да
Параметр ReFrames формата : 5 кадров
Идентификатор кодека : V_MPEG4/ISO/AVC
Продолжительность : 2 ч. 2 м.
Битрейт : 7674 Кбит/сек
Ширина : 1920 пикселей
Высота : 804 пикселя
Соотношение сторон : 2,40:1
Режим частоты кадров : Постоянный
Частота кадров : 25,000 кадров/сек
Цветовое пространство : YUV
Субдискретизация насыщенности : 4:2:0
Битовая глубина : 8 бит
Тип развёртки : Прогрессивная
Бит/(Пиксели*Кадры) : 0.199
Размер потока : 6,55 Гбайт (75%)
Библиотека кодирования : x264 core 98 r1649 20cbe10
Настройки программы : cabac=1 / ref=5 / deblock=1:-3:-3 / analyse=0x3:0x113 / me=umh / subme=9 / psy=1 / psy_rd=1.00:0.20 / mixed_ref=1 / me_range=24 / chroma_me=1 / trellis=2 / 8x8dct=1 / cqm=0 / deadzone=21,11 / fast_pskip=1 / chroma_qp_offset=-3 / threads=12 / sliced_threads=0 / nr=0 / decimate=0 / interlaced=0 / constrained_intra=0 / bframes=7 / b_pyramid=2 / b_adapt=1 / b_bias=0 / direct=3 / weightb=1 / weightp=2 / keyint=250 / keyint_min=25 / scenecut=40 / intra_refresh=0 / rc_lookahead=40 / rc=crf / mbtree=1 / crf=18.0 / qcomp=0.70 / qpmin=10 / qpmax=51 / qpstep=4 / ip_ratio=1.40 / aq=1:1.00
Язык : English
Default : Нет
Forced : Нет

Аудио #1
Идентификатор : 2
Формат : DTS
Формат/Информация : Digital Theater Systems
Режим : 16
Параметр Endianness формата : Big
Идентификатор кодека : A_DTS
Продолжительность : 2 ч. 2 м.
Вид битрейта : Постоянный
Битрейт : 1509 Кбит/сек
Каналы : 6 каналов
Расположение каналов : Front: L C R, Side: L R, LFE
Частота : 48,0 КГц
Битовая глубина : 16 бит
Метод сжатия : С потерями
Размер потока : 1,29 Гбайт (15%)
Заголовок : DTS.1509.Kbps (6ch) Russian
Язык : Russian
Default : Да
Forced : Нет

Аудио #2
Идентификатор : 3
Формат : AC-3
Формат/Информация : Audio Coding 3
Расширение режима : CM (complete main)
Параметр Endianness формата : Big
Идентификатор кодека : A_AC3
Продолжительность : 2 ч. 2 м.
Вид битрейта : Постоянный
Битрейт : 448 Кбит/сек
Каналы : 6 каналов
Расположение каналов : Front: L C R, Side: L R, LFE
Частота : 48,0 КГц
Битовая глубина : 16 бит
Метод сжатия : С потерями
Размер потока : 392 Мбайт (4%)
Язык : Russian
Default : Нет
Forced : Нет

Аудио #3
Идентификатор : 4
Формат : AC-3
Формат/Информация : Audio Coding 3
Расширение режима : CM (complete main)
Параметр Endianness формата : Big
Идентификатор кодека : A_AC3
Продолжительность : 2 ч. 2 м.
Вид битрейта : Постоянный
Битрейт : 448 Кбит/сек
Каналы : 6 каналов
Расположение каналов : Front: L C R, Side: L R, LFE
Частота : 48,0 КГц
Битовая глубина : 16 бит
Метод сжатия : С потерями
Размер потока : 392 Мбайт (4%)
Заголовок : AC3.448.Kbps (6ch) English
Язык : English
Default : Нет
Forced : Нет

Меню
00:00:00.000 : en:Chapter 00
00:06:13.040 : en:Chapter 01
00:10:52.360 : en:Chapter 02
00:17:03.400 : en:Chapter 03
00:22:54.600 : en:Chapter 04
00:31:04.240 : en:Chapter 05
00:40:54.600 : en:Chapter 06
00:52:28.200 : en:Chapter 07
00:58:19.880 : en:Chapter 08
01:10:12.280 : en:Chapter 09
01:17:41.160 : en:Chapter 10
01:21:07.360 : en:Chapter 11
01:26:07.680 : en:Chapter 12
01:34:16.440 : en:Chapter 13
01:43:02.400 : en:Chapter 14
01:52:25.680 : en:Chapter 15
Свернуть
Знаете ли вы, что...
Когда Джобс ходит на курсы каллиграфии, он рисует единицы и нули, что является основой двоичного кода.

Фильм рассказывает преимущественно о периоде с 1971 по 2000 год.

Строгая диета во время съемок закончилась для Эштона Кутчера плачевно: он попал в больницу с заболеванием поджелудочной железы. Актер постарался подойти к работе над персонажем основательно. Он не только просмотрел много интервью с Джобсом и скопировал его походку и манеру одеваться, но и перешел на режим питания, которого придерживался Джобс.

Почти все сцены в доме родителей Стива Джобса и их гараже были сняты в Лос-Альтосе, штат Калифорния, где Стив Джобс жил в 1970-х.
Фильм был снят без какого-либо участия компании Apple.

В одной из первых сцен, где подруга Стива Джобса предлагает ему кислоту, на таблетке виден радужный узор, как на логотипе Apple.

В сцене на первой компьютерной конференции в 1977 году бейджик Лукаса Хааса подписан реальным Дэниэлом Коттке, который присутствовал на съемочной площадке и следил за точностью исполнения этой сцены. Сам Дэниэл Коттке снялся в эпизодической роли на первой компьютерной конференции в 1977 году, а именно в сцене, где Джобс идет в сторону стенда Apple.

Нолан Бушнелл сыграл эпизодическую роль соучредителя компании Atari, который сидит с правой стороны стола, рядом с Артуром Роком, Джоном Скалли и Майком Марккула, когда Стив Джобс представляет рекламу Apple 1984 года.

В русском варианте фраза Гила Амелио «Apple is like a ship with a hole in the bottom, leaking water and my job is to get the ship pointed in the right direction» была переведена не совсем корректно: «Apple — это тонущий корабль с пробоиной в днище, и моей целью является удержание его на плаву». Более точным является следующий вариант: «Apple — это тонущий корабль с пробоиной в днище, и моей задачей является то, чтобы он двигался в правильном направлении».

Когда Джобс упоминает новый музыкальный плеер компании Apple, он называет его «the iPod» (в оригинальной озвучке). Джобс был противником того, чтобы названия устройств Apple начинались с артикля «the», объясняя это тем, что артикль «the» перед префиксом «i» будет излишним.

Перед тем как Джобс занялся проектом Macintosh в начале 1980-х, в сцене на стоянке мимо проезжает синий седан Chevy Cavalier второго поколения. Такие машины появились только в 1988 году.

Когда Джобс посещает компьютерный магазин в 1976 году, чтобы продать первый компьютер Apple, на полке стоят несколько мониторов IBM, которые появились в продаже только несколько лет спустя вместе с появлением компьютеров IBM.

Песня Джо Уолша «Life`s Been Good» играет в сцене 1976 года, хотя сама песня появилась только в 1978 году.

Когда Джобс возвращается в Apple в конце 1990-х годов, на улице у офиса компании можно заметить серебристый фургон Mercedes-Benz Sprinter второго поколения. Такие автомобили появились только в 2006 году.

Стив Джобс и Стив Возняк встречаются в конференц-зале вечером перед IPO. Когда Возняк встает, чтобы выйти из комнаты, справа от него на столе лежат блокнот и лист бумаги. В следующем кадре там лежит только блокнот.

Когда девушка Стива говорит ему, что она беременна, свет в комнате позади нее то включен, то нет.

Свернуть
Скриншоты
Изображение
Изображение
Изображение
Изображение
Свернуть
Не в сети
Профиль  
 Добавлено: 2013-11-04 19:16 (спустя 1 час 53 минуты)
Стаж: 8 лет 7 месяцев
Возраст: 38
Сообщений: 26
Спасибо! Давно ждал и хотел посмотреть!
Не являюсь поклонником Apple, но считаю Стива Джобса незаурядным человеком.
Не в сети
Профиль  
 Добавлено: 2013-11-05 02:31 (спустя 7 часов)
Аватара пользователя
Стаж: 4 года 11 месяцев
Сообщений: 6
Спасибок: 20
Лайков: 1
+100500. зачет. спс.
Не в сети
Профиль  
 Добавлено: 2013-11-07 15:26 (спустя 2 дня 12 часов)
Аватара пользователя
Стаж: 8 лет 9 месяцев
Сообщений: 1170
Спасибок: 1294
Лайков: 7
не впечатлен. не самые яркие моменты биографии ,всё очень поверхностно, вода и еще раз вода. образ неуравновешенного заносчивого Джобса вызывает у меня большие сомнения.

p.s. описание как будто от другого фильма
Не в сети
Профиль  
 Добавлено: 2013-11-13 07:13 (спустя 5 дней)
Стаж: 8 лет 7 месяцев
Сообщений: 46
Не понравилось, фильм пустоват. Помоему Кутчер переборщил с походкой Джобса-смотреть смешно.
Не в сети
Профиль  
Начать новую темуОтветить на тему  [ Сообщений: 5 ] 
Вы не можете начинать темы
Вы не можете отвечать на сообщения
Вы не можете редактировать свои сообщения
Вы не можете удалять свои сообщения