Правила форума

  • В этом разделе создание новых тем Запрещено.
  • Для создания новых тем пользуйтесь Корневым разделом DVD и HD фильмы.
Начать новую темуОтветить на тему  [ Сообщений: 2 ] 
Торрент файл
Размер: 4.48 GB • Зарегистрирован: 1 год 1 месяц • Статус: T Временный релиз
Скачан: 58 раз • Желающих скачать: 0 • Поблагодарили: 8 раз
 Раздают: 1  |  0 KB/s  ]   Качают: 0  |  0 KB/s  ] 
Сообщения
 Добавлено: 2015-10-11 09:55
RG-ELEKTRO
Аватара пользователя
Стаж: 2 года 3 месяца
Сообщений: 7928
Спасибок: 53776
Лайков: 3304
Джон Доу / John Doe: Vigilante


Изображение


Год выпуска: 2014
Страна: Австралия
Жанр: триллер
Продолжительность: 01:33:24
Перевод: Любительский (двухголосый закадровый) [den904 & DeadSno]

Режиссёр: Келли Долен
В ролях: Джэйми Бамбер, Дэниэль Лиссинг, Пол ОБрайен, Дитч Дэйви, Харри Павлидис, Луиз Кроуфорд, Флетчер Хамфрис, Бен Шуманн, Деннис Илик, Брук Райан, Брендан Клиркин, Сэм Парсонсон, Хлоэ Гаймер, Ричард Ламбет
Описание: Некоторые называют его героем. Некоторые - злодеем. Он - Джон Доу - обычный человек, который решает взять закон в свои руки. Разочарованный правовой системой, которая позволяет преступникам разгуливать на свободе, Джон Доу начинает сам вершить правосудие единственным известным ему методом - убивая преступников...

Изображение Изображение Изображение
Качество: BDRip 720p
Формат: MKV
Видео кодек: MPEG-4 AVC
Аудио кодек: AC3 / DTS
Видео: MPEG-4 AVC, 5170 Kb/s, 1280x528
Аудио #1: AC3, 192 Kb/s (2 ch) [Любительский (двухголосый закадровый)]
Аудио #2: English: DTS, 1510 Kb/s (6 ch)

"MI"
Уникальный идентификатор : 201967342663452266341044333987353170828 (0x97F17ECC231DAF84A791FD02B61D938C)
Полное имя : Dzhon.Dou.2014.L2.BDRip.720p.mkv
Формат : Matroska
Версия формата : Version 4 / Version 2
Размер файла : 4,48 Гбайт
Продолжительность : 1 ч. 33 м.
Общий поток : 6872 Кбит/сек
Дата кодирования : UTC 2015-10-10 14:11:54
Программа кодирования : mkvmerge v6.1.0 ('Old Devil') built on Mar 4 2013 09:10:42
Библиотека кодирования : libebml v1.3.0 + libmatroska v1.4.0

Видео
Идентификатор : 1
Формат : AVC
Формат/Информация : Advanced Video Codec
Профиль формата : High@L4.1
Параметр CABAC формата : Да
Параметр ReFrames формата : 5 кадров
Идентификатор кодека : V_MPEG4/ISO/AVC
Продолжительность : 1 ч. 33 м.
Битрейт : 5170 Кбит/сек
Ширина : 1280 пикселей
Высота : 528 пикселей
Соотношение сторон : 2,40:1
Режим частоты кадров : Постоянный
Частота кадров : 24,000 кадра/сек
Цветовое пространство : YUV
Субдискретизация насыщенности : 4:2:0
Битовая глубина : 8 бит
Тип развёртки : Прогрессивная
Бит/(Пиксели*Кадры) : 0.319
Размер потока : 3,28 Гбайт (73%)
Библиотека кодирования : x264 core 144 r2525 40bb568
Настройки программы : cabac=1 / ref=5 / deblock=1:0:0 / analyse=0x3:0x133 / me=umh / subme=8 / psy=1 / psy_rd=1.00:0.00 / mixed_ref=1 / me_range=16 / chroma_me=1 / trellis=1 / 8x8dct=1 / cqm=0 / deadzone=21,11 / fast_pskip=0 / chroma_qp_offset=-2 / threads=12 / lookahead_threads=2 / sliced_threads=0 / nr=0 / decimate=1 / interlaced=0 / bluray_compat=0 / constrained_intra=0 / bframes=3 / b_pyramid=2 / b_adapt=1 / b_bias=0 / direct=1 / weightb=1 / open_gop=0 / weightp=2 / keyint=250 / keyint_min=23 / scenecut=40 / intra_refresh=0 / rc_lookahead=40 / rc=2pass / mbtree=1 / bitrate=5170 / ratetol=1.0 / qcomp=0.60 / qpmin=0 / qpmax=69 / qpstep=4 / cplxblur=20.0 / qblur=0.5 / ip_ratio=1.40 / aq=1:1.00
Язык : English
Default : Да
Forced : Нет

Аудио #1
Идентификатор : 2
Формат : AC-3
Формат/Информация : Audio Coding 3
Расширение режима : CM (complete main)
Параметр Endianness формата : Big
Идентификатор кодека : A_AC3
Продолжительность : 1 ч. 33 м.
Вид битрейта : Постоянный
Битрейт : 192 Кбит/сек
Каналы : 2 канала
Расположение каналов : Front: L R
Частота : 48,0 КГц
Метод сжатия : С потерями
Размер потока : 128 Мбайт (3%)
Язык : Russian
Default : Да
Forced : Нет

Аудио #2
Идентификатор : 3
Формат : DTS
Формат/Информация : Digital Theater Systems
Режим : 16
Параметр Endianness формата : Big
Идентификатор кодека : A_DTS
Продолжительность : 1 ч. 33 м.
Вид битрейта : Постоянный
Битрейт : 1509 Кбит/сек
Каналы : 6 каналов
Расположение каналов : Front: L C R, Side: L R, LFE
Частота : 48,0 КГц
Свернуть

Скриншоты
Изображение
Изображение
Изображение
Свернуть
Изображение


Изображение Изображение
_________________
Не ищите меня в "ВКонтакте", в "Одноклассниках" меня нет - я на трекерах сижу!
Не в сети
Профиль  
 Добавлено: 2015-11-08 23:20 (спустя 28 дней)
Аватара пользователя
Стаж: 6 лет 8 месяцев
Сообщений: 269
Лайков: 46
очень похоже на Законопоcлушного гражданина.
концовка cмазана. а хотелоcь увидеть однозначное мнение авторов наcчет дейcтвий ГГ...
Не в сети
Профиль  
Начать новую темуОтветить на тему  [ Сообщений: 2 ] 
Вы не можете начинать темы
Вы не можете отвечать на сообщения
Вы не можете редактировать свои сообщения
Вы не можете удалять свои сообщения