Правила форума

  • В этом разделе создание новых тем Запрещено.
  • Для создания новых тем пользуйтесь Корневым разделом DVD и HD фильмы.
Начать новую темуОтветить на тему  [ Сообщений: 10 ] 
Торрент файл
Размер: 11.67 GB • Зарегистрирован: 1 год 10 месяцев • Статус: Проверено
Скачан: 272 раза • Желающих скачать: 0 • Поблагодарили: 56 раз
 Раздают: 2  |  11 KB/s  ]   Качают: 0  |  0 KB/s  ] 
Сообщения
 Добавлено: 2015-01-26 17:18
Модератор
Аватара пользователя
Стаж: 5 лет 8 месяцев
Сообщений: 6281
Спасибок: 17331
Лайков: 1633
Джон Уик / John Wick

«Его лучше не трогать»

Изображение


Год выпуска: 2014
Страна: США, Канада, Китай
Жанр: боевик, триллер
Продолжительность: 01:34:34
Перевод: Профессиональный (полное дублирование) Лицензия + Авторский (Матвеев, Есарев)
Режиссёр: Чад Стахелски, Дэвид Лейтч
В ролях: Киану Ривз, Микаэл Нюквист, Элфи Оуэн-Аллен, Уиллем Дефо, Дин Уинтерс, Эдрианн Палики, Омер Барнеа, Тоби Мур, Дэниэл Бернхард, Бриджет Мойнэхэн
Описание: Джон Уик — бывший наемный убийца — ведет размеренную жизнь, когда преступник крадет его любимый Mustang 1969 года и попутно убивает собаку Дейзи, единственное живое напоминание об умершей жене. Жажда мести пробуждает в нем, казалось, утерянную хватку…
Изображение
Sample: http://sendfile.su/1078360
Качество: BDRip 1080p
Формат: MKV
Видео: MPEG-4 AVC, 10.9 Мбит/с, 1920x800
Аудио #1: Rus (AC3, 6 ch, 384 Кбит/с)
Аудио #2: Rus (AC3, 6 ch, 448 Кбит/с)
Аудио #3: Rus (AC3, 6 ch, 640 Кбит/с)
Аудио #4: Rus (DTS, 6 ch, 1510 Кбит/с)
Аудио #5: Eng (AC3, 6 ch, 640 Кбит/с)
Аудио #6: Eng (AC3, 2 ch, 224 Кбит/с)
MI
Общее
Уникальный идентификатор : 209351972335182266022768797525798357109 (0x9D7FB9267F889207BC37192588410875)
Полное имя : C:\1\John.Wick.2014.1080p.BluRay.x264-NTb.mkv
Формат : Matroska
Версия формата : Version 4 / Version 2
Размер файла : 11,7 Гбайт
Продолжительность : 1 ч. 41 м.
Общий поток : 16,5 Мбит/сек
Дата кодирования : UTC 2015-01-26 08:03:14
Программа кодирования : mkvmerge v7.3.0 ('Nouages') 64bit built on Oct 22 2014 18:53:34
Библиотека кодирования : libebml v1.3.0 + libmatroska v1.4.1
_STATISTICS_WRITING_APP : mkvmerge v7.3.0 ('Nouages') 64bit built on Oct 22 2014 18:53:34
_STATISTICS_WRITING_DATE_UTC : 2015-01-26 08:03:14
_STATISTICS_TAGS : BPS DURATION NUMBER_OF_FRAMES NUMBER_OF_BYTES
DURATION : 01:41:12.982000000
NUMBER_OF_FRAMES : 569342
NUMBER_OF_BYTES : 1145516104

Видео
Идентификатор : 1
Формат : AVC
Формат/Информация : Advanced Video Codec
Профиль формата : High@L4.1
Параметр CABAC формата : Да
Параметр ReFrames формата : 5 кадров
Идентификатор кодека : V_MPEG4/ISO/AVC
Продолжительность : 1 ч. 41 м.
Битрейт : 10,8 Мбит/сек
Ширина : 1920 пикселей
Высота : 800 пикселей
Соотношение сторон : 2,40:1
Режим частоты кадров : Постоянный
Частота кадров : 23,976 кадра/сек
Цветовое пространство : YUV
Субдискретизация насыщенности : 4:2:0
Битовая глубина : 8 бит
Тип развёртки : Прогрессивная
Бит/(Пиксели*Кадры) : 0.294
Размер потока : 7,66 Гбайт (66%)
Библиотека кодирования : x264 core 142 r2479 dd79a61
Настройки программы : cabac=1 / ref=5 / deblock=1:-3:-3 / analyse=0x3:0x133 / me=umh / subme=10 / psy=1 / psy_rd=0.98:0.00 / mixed_ref=1 / me_range=48 / chroma_me=1 / trellis=2 / 8x8dct=1 / cqm=0 / deadzone=21,11 / fast_pskip=1 / chroma_qp_offset=-2 / threads=16 / lookahead_threads=2 / sliced_threads=0 / nr=0 / decimate=1 / interlaced=0 / bluray_compat=0 / constrained_intra=0 / bframes=9 / b_pyramid=2 / b_adapt=2 / b_bias=0 / direct=3 / weightb=1 / open_gop=0 / weightp=2 / keyint=250 / keyint_min=23 / scenecut=40 / intra_refresh=0 / rc_lookahead=100 / rc=crf / mbtree=0 / crf=16.3 / qcomp=0.65 / qpmin=0 / qpmax=69 / qpstep=4 / vbv_maxrate=50000 / vbv_bufsize=62500 / crf_max=0.0 / nal_hrd=none / filler=0 / ip_ratio=1.30 / pb_ratio=1.20 / aq=2:0.80
Язык : English
Default : Да
Forced : Нет
_STATISTICS_WRITING_APP : mkvmerge v7.3.0 ('Nouages') 64bit built on Oct 22 2014 18:53:34
_STATISTICS_WRITING_DATE_UTC : 2015-01-26 08:03:14
_STATISTICS_TAGS : BPS DURATION NUMBER_OF_FRAMES NUMBER_OF_BYTES
DURATION : 01:41:12.900000000
NUMBER_OF_FRAMES : 145604
NUMBER_OF_BYTES : 8465976022

Аудио #1
Идентификатор : 2
Формат : DTS
Формат/Информация : Digital Theater Systems
Режим : 16
Параметр Endianness формата : Big
Идентификатор кодека : A_DTS
Продолжительность : 1 ч. 41 м.
Вид битрейта : Постоянный
Битрейт : 1509 Кбит/сек
Каналы : 6 каналов
Расположение каналов : Front: L C R, Side: L R, LFE
Частота : 48,0 КГц
Битовая глубина : 16 бит
Метод сжатия : С потерями
Размер потока : 1,07 Гбайт (9%)
Язык : Russian
Default : Да
Forced : Нет

Аудио #2
Идентификатор : 3
Формат : AC-3
Формат/Информация : Audio Coding 3
Расширение режима : CM (complete main)
Параметр Endianness формата : Big
Идентификатор кодека : A_AC3
Продолжительность : 1 ч. 41 м.
Вид битрейта : Постоянный
Битрейт : 448 Кбит/сек
Каналы : 6 каналов
Расположение каналов : Front: L C R, Side: L R, LFE
Частота : 48,0 КГц
Битовая глубина : 16 бит
Метод сжатия : С потерями
Размер потока : 324 Мбайт (3%)
Язык : Russian
Default : Нет
Forced : Нет

Аудио #3
Идентификатор : 4
Формат : AC-3
Формат/Информация : Audio Coding 3
Расширение режима : CM (complete main)
Параметр Endianness формата : Big
Идентификатор кодека : A_AC3
Продолжительность : 1 ч. 41 м.
Вид битрейта : Постоянный
Битрейт : 640 Кбит/сек
Каналы : 6 каналов
Расположение каналов : Front: L C R, Side: L R, LFE
Частота : 48,0 КГц
Битовая глубина : 16 бит
Метод сжатия : С потерями
Размер потока : 463 Мбайт (4%)
Заголовок : AVO Matveev
Язык : Russian
Default : Нет
Forced : Нет

Аудио #4
Идентификатор : 5
Формат : AC-3
Формат/Информация : Audio Coding 3
Расширение режима : CM (complete main)
Параметр Endianness формата : Big
Идентификатор кодека : A_AC3
Продолжительность : 1 ч. 41 м.
Вид битрейта : Постоянный
Битрейт : 384 Кбит/сек
Каналы : 6 каналов
Расположение каналов : Front: L C R, Side: L R, LFE
Частота : 48,0 КГц
Битовая глубина : 16 бит
Метод сжатия : С потерями
Размер потока : 278 Мбайт (2%)
Заголовок : AVO Esarev
Язык : Russian
Default : Нет
Forced : Нет

Аудио #5
Идентификатор : 6
Формат : DTS
Формат/Информация : Digital Theater Systems
Режим : 16
Параметр Endianness формата : Big
Идентификатор кодека : A_DTS
Продолжительность : 1 ч. 41 м.
Вид битрейта : Постоянный
Битрейт : 1509 Кбит/сек
Каналы : 6 каналов
Расположение каналов : Front: L C R, Side: L R, LFE
Частота : 48,0 КГц
Битовая глубина : 24 бит
Метод сжатия : С потерями
Размер потока : 1,07 Гбайт (9%)
Заголовок : AVO Matveev
Язык : Russian
Default : Нет
Forced : Нет

Аудио #6
Идентификатор : 7
Формат : AC-3
Формат/Информация : Audio Coding 3
Расширение режима : CM (complete main)
Параметр Endianness формата : Big
Идентификатор кодека : A_AC3
Продолжительность : 1 ч. 41 м.
Вид битрейта : Постоянный
Битрейт : 640 Кбит/сек
Каналы : 6 каналов
Расположение каналов : Front: L C R, Side: L R, LFE
Частота : 48,0 КГц
Битовая глубина : 16 бит
Метод сжатия : С потерями
Размер потока : 463 Мбайт (4%)
Язык : English
Default : Нет
Forced : Нет

Аудио #7
Идентификатор : 8
Формат : AC-3
Формат/Информация : Audio Coding 3
Профиль формата : Dolby Digital
Расширение режима : CM (complete main)
Параметр Endianness формата : Big
Идентификатор кодека : A_AC3
Продолжительность : 1 ч. 41 м.
Вид битрейта : Постоянный
Битрейт : 224 Кбит/сек
Каналы : 2 канала
Расположение каналов : Front: L R
Частота : 48,0 КГц
Битовая глубина : 16 бит
Метод сжатия : С потерями
Размер потока : 162 Мбайт (1%)
Заголовок : Director's Commentary
Язык : English
Default : Нет
Forced : Нет

Текст #1
Идентификатор : 9
Формат : UTF-8
Идентификатор кодека : S_TEXT/UTF8
Идентификатор кодека/Информация : UTF-8 Plain Text
Заголовок : Forced
Язык : Russian
Default : Да
Forced : Нет

Текст #2
Идентификатор : 10
Формат : UTF-8
Идентификатор кодека : S_TEXT/UTF8
Идентификатор кодека/Информация : UTF-8 Plain Text
Заголовок : Full
Язык : Russian
Default : Нет
Forced : Нет

Текст #3
Идентификатор : 11
Формат : UTF-8
Идентификатор кодека : S_TEXT/UTF8
Идентификатор кодека/Информация : UTF-8 Plain Text
Язык : English
Default : Нет
Forced : Нет

Текст #4
Идентификатор : 12
Формат : UTF-8
Идентификатор кодека : S_TEXT/UTF8
Идентификатор кодека/Информация : UTF-8 Plain Text
Заголовок : SDH
Язык : English
Default : Нет
Forced : Нет

Меню
00:00:00.000 : en:00:00:00.000
00:04:57.506 : en:00:04:57.506
00:12:21.866 : en:00:12:21.866
00:17:07.735 : en:00:17:07.735
00:26:25.167 : en:00:26:25.167
00:32:40.250 : en:00:32:40.250
00:36:24.599 : en:00:36:24.599
00:42:16.033 : en:00:42:16.033
00:45:33.272 : en:00:45:33.272
00:55:02.507 : en:00:55:02.507
00:59:27.564 : en:00:59:27.564
01:06:13.428 : en:01:06:13.428
01:14:15.910 : en:01:14:15.910
01:19:13.040 : en:01:19:13.040
01:27:29.786 : en:01:27:29.786
01:32:24.789 : en:01:32:24.789
Свернуть
Скриншоты
ИзображениеИзображениеИзображениеИзображение
Свернуть
Знаете ли Вы, что...
В этом фильме Киану Ривз ездит на черном Dodge Charger. На точно таком же автомобиле он ездил в фильме «Короли улиц» (2008).
Персонаж Джон Уик также есть в видеоигре Payday 2 (2013). Он был добавлен в игру за два дня до выхода фильма в прокат.
По словам Киану Ривза, он сам исполнил 90 процентов своих трюков в фильме.
Киану Ривз выучил всю сцену сражения в ночном клубе в тот же день, когда она была снята.
В сценах рукопашного боя можно заметить, что Джон Уик использует приемы дзюдо, а его соперник миссис Перкинс — джиу-джитсу.
Имя Джон Уик было дано главному персонажу сценаристом Дереком Кольстадом в честь его дедушки.
Охранник, который машет Уику на взлетно-посадочной полосе, читает роман Треваньяна (Род Уитакер) «Шибуми». В этом романе описываются события, схожие с сюжетом фильма: ушедший на покой наемный убийца вынужден вновь взяться за свое ремесло. Также история, которую рассказывает Вигго о том, как Уик убил трех людей при помощи карандаша, является отсылкой к роману «Шибуми», герой которого использовал для совершения убийств различные предметы быта.

Ошибки в фильме

В ходе телефонного разговора между Джоном Уиком и Уинстоном перед финальной сценой они оба используют смартфоны, и у каждого из них горят сенсорные экраны во время разговора.
В Нью-Джерси, когда Джон Уик впервые сталкивается с Иосифом, они оба пользуются заправками с самообслуживанием, которые на самом деле запрещены в этом штате.
В начале фильма есть сцена, где Джон разговаривает с другом на улице под дождем, и у каждого из них в руках черный зонтик. Прямо перед тем, как они расходятся, можно заметить, что зонтики у них в руках поменялись (то есть у Джона в руках зонтик его друга).
Когда Джон Уик просыпается перед похоронами его жены, его будильник срабатывает в 6 часов утра. Когда он встает в следующих кадрах, то на будильнике уже 10:06. При этом на улице освещение не поменялось.
В сцене финальной погони, когда Tahoe сталкивает Dodge Charger с края стены, можно заметить, что у падающего автомобиля отсутствуют трансмиссия, двигатель и карданный вал.
Свернуть
_________________
Изображение Изображение Изображение
 Shamman и sashannov нравится это.
Не в сети
Профиль  
 Добавлено: 2015-01-26 18:08 (спустя 49 минут)
Top-releaser
Аватара пользователя
Стаж: 8 лет 7 месяцев
Сообщений: 1286
Спасибок: 3420
Лайков: 7
А четвёртая русская дорога чей перевод?
Не в сети
Профиль  
 Добавлено: 2015-01-26 18:12 (спустя 3 минуты)
Модератор
Аватара пользователя
Стаж: 5 лет 8 месяцев
Сообщений: 6281
Спасибок: 17331
Лайков: 1633
Shamman
Есарев
_________________
Изображение Изображение Изображение
Не в сети
Профиль  
 Добавлено: 2015-01-27 00:21 (спустя 6 часов)
Стаж: 5 лет 7 месяцев
Сообщений: 154
Лайков: 35
вон оно как уже лицензия Не спать-смотреть
Не в сети
Профиль  
 Добавлено: 2015-01-27 02:00 (спустя 1 час 39 минут)
Стаж: 5 лет 7 месяцев
Сообщений: 154
Лайков: 35
перевод есарева шикарен фильм тоже ок
Не в сети
Профиль  
 Добавлено: 2015-01-28 22:02 (спустя 1 день 20 часов)
Аватара пользователя
Стаж: 8 лет 3 месяца
Возраст: 32
Сообщений: 271
Спасибок: 19
Лайков: 2
шляпный фильмец, смотреть можно только из-за Киану
Не в сети
Профиль  
 Добавлено: 2015-02-01 08:57 (спустя 3 дня)
Аватара пользователя
Стаж: 9 лет 1 месяц
Возраст: 36
Сообщений: 195
Спасибок: 20
Лайков: 8
Чего то слабоват фильм то. Сплошная стрельба в стиле рембо и больше ничего.
Не в сети
Профиль  
 Добавлено: 2015-02-08 16:08 (спустя 7 дней)
Аватара пользователя
Стаж: 8 лет 1 месяц
Сообщений: 346
Спасибок: 85
Лайков: 7
Редкостная хрень. Сплошной трешак как в низкобюджетных боевичках начала 90-х. Сюжета нет, одна стрельба без особых на то причин. Плюсом к этому в разговорах и поступках героев шаблон на шаблоне. Киану Ривзу эта роль вообще не подходит, никогда он не был брутальным и крутым, хотя его персонаж этого требует, в итоге получился грустный киллер. Если кто хочет посмотреть боевик без особых сюжетных изысков, то посоветую недавно вышедшего "Великого уравнителя" с Дензелом Вашингтоном, ему роль брутального мстителя подходит как никому другому. А на данный фильм тратить своё время не советую никому.
Не в сети
Профиль  
 Добавлено: 2015-02-25 09:03 (спустя 16 дней)
Стаж: 6 лет 9 месяцев
Сообщений: 4
"Ты украл мою машину, ты убил мою собаку". Не везет Киану последнее время на хорошие фильмы. Смотреть не смог.
Не в сети
Профиль  
 Добавлено: 2015-09-06 01:49 (спустя 6 месяцев)
Стаж: 7 лет 3 месяца
Сообщений: 16
Фильм супер, давно ничего такого не смотрел. Киану, как всегда сыграл на 100%. Смотрели на одном дыхание. Буду смотреть второй раз. В коллекцию.
Не в сети
Профиль  
Начать новую темуОтветить на тему  [ Сообщений: 10 ] 
Вы не можете начинать темы
Вы не можете отвечать на сообщения
Вы не можете редактировать свои сообщения
Вы не можете удалять свои сообщения