Правила форума

  • В этом разделе создание новых тем Запрещено.
  • Для создания новых тем пользуйтесь Корневым разделом DVD и HD фильмы.
Начать новую темуОтветить на тему  [ Сообщений: 2 ] 
Торрент файл
Размер: 8.45 GB • Зарегистрирован: 4 года • Статус: Проверено
Скачан: 19 раз • Желающих скачать: 0 • Поблагодарили: 8 раз
 Раздают: 0  |  0 KB/s  ]   Качают: 0  |  0 KB/s  ] 
 Полного источника не было 1 год 3 месяца 
Сообщения
 Добавлено: 2012-11-18 15:08
Top-releaser
Аватара пользователя
Стаж: 6 лет 7 месяцев
Сообщений: 2078
Спасибок: 3230
Лайков: 9
Изображение

Джонни Д.
Public Enemies


Год выпуска: 2009
Страна: США
Слоган: «America's Most Wanted»
Жанр: драма, криминал, биография, история
Продолжительность: 02:20:04
Перевод: Профессиональный (полное дублирование)
Режиссер: Майкл Манн
Сценарий: Ронан Беннетт, Майкл Манн, Энн Бидермен, Брайан Барроу
Продюсер: Майкл Манн, Кевин Мишер, Дж. Мак Браун, Брайан Х. Кэрролл, Гусмано Цесаретти
Оператор: Данте Спинотти
Композитор: Эллиот Голденталь
В ролях: Джонни Депп, Кристиан Бэйл, Марион Котийяр, Джованни Рибизи, Билли Крудап, Джон Ортиз, Стивен Грэм, Спенсер Гаррет, Эд Брюс, Джеймс Руссо, Дэвид Уэнэм, Кристиан Столте
Бюджет: $100 000 000
Сборы в США: $97 104 620
Сборы в России: $5 677 353
Сборы в мире: $214 104 620
Мировая премьера: 18 июня 2009
Релиз на DVD: 10 ноября 2009, «Юниверсал Пикчерс Рус»
Релиз на Blu-ray: 24 ноября 2009, «Юниверсал Пикчерс Рус»
Описание: Сюжет фильма повествует о легендарном грабителе банков Джоне Диллинджере. Дерзкие нападения сделали его выдающимся героем для всех угнетенных и главной мишенью для лучшего агента ФБР Мелвина Первиса и директора бюро Джона Эдгара Гувера. Никто не мог остановить банду Диллинджера. Ни одна тюрьма не могла его удержать. Обаяние и отчаянные побеги прославляли преступника в обществе, считавшем банки главной причиной Великой депрессии.
В то время, как приключения лихой банды, к которой примкнули Малыш Нельсон и Элвин Карпис, вдохновляли обозленных граждан, Гувер решил воспользоваться случаем и превратить Бюро расследований в главную правоохранительную организацию страны - ФБР. Он сделал Диллинджера самым опасным врагом Америки, а спасителем нарек Первиса, гордость Федерального бюро.

Раздача группы: Изображение

Изображение User Rating: 7.058 (46 661)
Изображение User Rating: 7.00 (137 489)
MPAA: R - Лицам до 17 лет обязательно присутствие взрослого
Качество: BDRip, 720p
Формат: Matroska
Видео: AVC; 1280x534 (2.35:1); 6380 Kbps; 23,976 fps; 0,389 bit/pixel
Аудио №1: Russian; AC3; 384 Kbps; CBR; 6 ch
Аудио №2: English; DTS; 1509 Kbps; CBR; 6 ch; 24 bit
Аудио №3: English; AC3; 192 Kbps; CBR; 2 ch
(комментарии режиссёра)
Субтитры: Russian, English, Ukrainian, Dutch, Finnish, French, Portuguese, Spanish

MediaInfo
Общее
Уникальный идентификатор : 200698257709812859161295378002375893383 (0x96FD14140D4868F99834E30026D86187)
Полное имя : Z:\WWW\TR-Downloads\Public Enemies.2009.720p.[R.G.Daredevil].mkv
Формат : Matroska
Версия формата : Version 2
Размер файла : 8,45 Гбайт
Продолжительность : 2 ч. 20 м.
Общий поток : 8638 Кбит/сек
Дата кодирования : UTC 2009-11-08 17:22:12
Программа кодирования : mkvmerge v2.9.8 ('C'est le bon') built on Aug 13 2009 12:49:06
Библиотека кодирования : libebml v0.7.7 + libmatroska v0.8.1
Attachment : Yes / Yes

Видео
Идентификатор : 1
Формат : AVC
Формат/Информация : Advanced Video Codec
Профиль формата : High@L4.1
Параметр CABAC формата : Да
Параметр ReFrames формата : 12 кадров
Идентификатор кодека : V_MPEG4/ISO/AVC
Продолжительность : 2 ч. 20 м.
Битрейт : 6549 Кбит/сек
Ширина : 1280 пикселей
Высота : 534 пикселя
Соотношение сторон : 2,40:1
Частота кадров : 23,976 кадра/сек
Цветовое пространство : YUV
Субдискретизация насыщенности : 4:2:0
Битовая глубина : 8 бит
Тип развёртки : Прогрессивная
Бит/(Пиксели*Кадры) : 0.400
Размер потока : 6,24 Гбайт (74%)
Библиотека кодирования : x264 core 78 r1301M bcba15d
Настройки программы : cabac=1 / ref=12 / deblock=1:-3:-3 / analyse=0x3:0x113 / me=umh / subme=9 / psy=1 / psy_rd=0.8:0.0 / mixed_ref=1 / me_range=48 / chroma_me=1 / trellis=2 / 8x8dct=1 / cqm=0 / deadzone=21,11 / chroma_qp_offset=-2 / threads=6 / nr=0 / decimate=0 / mbaff=0 / constrained_intra=0 / bframes=6 / b_pyramid=0 / b_adapt=2 / b_bias=0 / direct=3 / wpredb=1 / keyint=250 / keyint_min=25 / scenecut=40 / rc_lookahead=40 / rc=2pass / mbtree=1 / bitrate=6549 / ratetol=1.0 / qcomp=0.60 / qpmin=10 / qpmax=51 / qpstep=4 / cplxblur=20.0 / qblur=0.5 / ip_ratio=1.40 / aq=1:0.80
Язык : English
Default : Да
Forced : Нет

Аудио #1
Идентификатор : 2
Формат : AC-3
Формат/Информация : Audio Coding 3
Расширение режима : CM (complete main)
Параметр Endianness формата : Big
Идентификатор кодека : A_AC3
Продолжительность : 2 ч. 20 м.
Вид битрейта : Постоянный
Битрейт : 384 Кбит/сек
Каналы : 6 каналов
Расположение каналов : Front: L C R, Side: L R, LFE
Частота : 48,0 КГц
Битовая глубина : 16 бит
Метод сжатия : С потерями
Размер потока : 385 Мбайт (4%)
Заголовок : AC3 5.1 384 kbps
Язык : Russian
Default : Да
Forced : Нет

Аудио #2
Идентификатор : 3
Формат : DTS
Формат/Информация : Digital Theater Systems
Идентификатор кодека : A_DTS
Продолжительность : 2 ч. 20 м.
Вид битрейта : Постоянный
Битрейт : 1510 Кбит/сек
Каналы : 6 каналов
Расположение каналов : Front: L C R, Side: L R, LFE
Частота : 48,0 КГц
Битовая глубина : 24 бит
Метод сжатия : С потерями
Размер потока : 1,48 Гбайт (17%)
Заголовок : DTS 5.1 1536 kbps
Язык : English
Default : Нет
Forced : Нет

Аудио #3
Идентификатор : 4
Формат : AC-3
Формат/Информация : Audio Coding 3
Профиль формата : Dolby Digital
Расширение режима : CM (complete main)
Параметр Endianness формата : Big
Идентификатор кодека : A_AC3
Продолжительность : 2 ч. 20 м.
Вид битрейта : Постоянный
Битрейт : 192 Кбит/сек
Каналы : 2 канала
Расположение каналов : Front: L R
Частота : 48,0 КГц
Битовая глубина : 16 бит
Метод сжатия : С потерями
Размер потока : 192 Мбайт (2%)
Заголовок : Commentary by Director Michael Mann AC3 2.0 192 kbps
Язык : English
Default : Нет
Forced : Нет

Текст #1
Идентификатор : 5
Формат : UTF-8
Идентификатор кодека : S_TEXT/UTF8
Идентификатор кодека/Информация : UTF-8 Plain Text
Язык : Russian
Default : Нет
Forced : Нет

Текст #2
Идентификатор : 6
Формат : UTF-8
Идентификатор кодека : S_TEXT/UTF8
Идентификатор кодека/Информация : UTF-8 Plain Text
Заголовок : Commentary by Director Michael Mann
Язык : Russian
Default : Нет
Forced : Нет

Текст #3
Идентификатор : 7
Формат : UTF-8
Идентификатор кодека : S_TEXT/UTF8
Идентификатор кодека/Информация : UTF-8 Plain Text
Язык : English
Default : Нет
Forced : Нет

Текст #4
Идентификатор : 8
Формат : UTF-8
Идентификатор кодека : S_TEXT/UTF8
Идентификатор кодека/Информация : UTF-8 Plain Text
Язык : Ukrainian
Default : Нет
Forced : Нет

Текст #5
Идентификатор : 9
Формат : UTF-8
Идентификатор кодека : S_TEXT/UTF8
Идентификатор кодека/Информация : UTF-8 Plain Text
Язык : Dutch
Default : Нет
Forced : Нет

Текст #6
Идентификатор : 10
Формат : UTF-8
Идентификатор кодека : S_TEXT/UTF8
Идентификатор кодека/Информация : UTF-8 Plain Text
Язык : Finnish
Default : Нет
Forced : Нет

Текст #7
Идентификатор : 11
Формат : UTF-8
Идентификатор кодека : S_TEXT/UTF8
Идентификатор кодека/Информация : UTF-8 Plain Text
Язык : French
Default : Нет
Forced : Нет

Текст #8
Идентификатор : 12
Формат : UTF-8
Идентификатор кодека : S_TEXT/UTF8
Идентификатор кодека/Информация : UTF-8 Plain Text
Язык : Portuguese
Default : Нет
Forced : Нет

Текст #9
Идентификатор : 13
Формат : UTF-8
Идентификатор кодека : S_TEXT/UTF8
Идентификатор кодека/Информация : UTF-8 Plain Text
Язык : Spanish
Default : Нет
Forced : Нет

Текст #10
Идентификатор : 14
Формат : UTF-8
Идентификатор кодека : S_TEXT/UTF8
Идентификатор кодека/Информация : UTF-8 Plain Text
Заголовок : Tol'ko nadpisi
Язык : Russian
Default : Да
Forced : Нет

Меню
00:00:00.000 : en:00:00:00.000
00:07:19.606 : en:00:07:19.606
00:12:50.269 : en:00:12:50.269
00:20:19.093 : en:00:20:19.093
00:25:53.469 : en:00:25:53.469
00:31:33.850 : en:00:31:33.850
00:36:44.160 : en:00:36:44.160
00:42:13.489 : en:00:42:13.489
00:47:59.543 : en:00:47:59.543
00:53:26.662 : en:00:53:26.662
01:00:53.942 : en:01:00:53.942
01:08:29.522 : en:01:08:29.522
01:15:34.655 : en:01:15:34.655
01:21:56.912 : en:01:21:56.912
01:34:00.677 : en:01:34:00.677
01:41:05.893 : en:01:41:05.893
01:48:24.998 : en:01:48:24.998
01:53:27.342 : en:01:53:27.342
01:58:43.491 : en:01:58:43.491
02:11:36.889 : en:02:11:36.889
Свернуть
"Знаете ли Вы, что..."
  • Этот фильм - экранизация документального романа Брайана Барро «Враги общества: Величайшая волна преступности в Америке и рождение ФБР».
  • Планировалось, что главную роль сыграет Леонардо ДиКаприо.
  • В фильме Джонни Депп говорит одному из посетителей банка: «Нам нужны не ваши деньги, а только деньги банка». Такую же фразу произносит герой Роберт Де Ниро в картине Манна «Схватка».
  • Съемки фильма прошли в семи городах штата Иллинойс, семи городах Висконсина, в одном из городов Индианы, а также в Майями.
  • В результате забастовки сценаристов режиссер Майкл Манн смог привлечь к проекту Джонни Деппа и Марион Котийяр, так как проекты, в которых они в то время снимались, были отложены. Джонни Депп готовился к съемкам в фильме «Шантарам»(2011), режиссер Мира Наир, а Котийяр репетировала роль в мюзикле Роба Маршалла «Девять»(2009).
  • Картина открывается смертью Красавчика Флойда. На самом деле Флойд был убит уже после Джона Диллинджера.
  • В картине во время перестрелки в «Маленькой Богемии» был убит Нельсон, Ван Митер и другие преступники. На самом же деле никто из преступников убит не был, был только ранен Пит Пирпойнт (который почему-то в фильме в это время сидел в тюрьме, что противоречит действительности). «Маленькая Богемия» осталась одной из позорных страниц в истории ФБР: все преступники сбежали, а агенты убили ни в чём не повинного местного жителя и ранили нескольких; также был убит один из агентов ФБР.
Свернуть
Скриншоты

Изображение
Изображение
Изображение
Изображение
Изображение
Свернуть
Не в сети
Профиль  
 Добавлено: 2012-11-18 15:22 (спустя 13 минут)
Модератор
Аватара пользователя
Стаж: 6 лет 10 месяцев
Возраст: 33
Сообщений: 5908
Спасибок: 61265
Лайков: 3540
:co_ol:
_________________
ИзображениеИзображение Изображение
Изображение
Не в сети
Профиль  
Начать новую темуОтветить на тему  [ Сообщений: 2 ] 
Вы не можете начинать темы
Вы не можете отвечать на сообщения
Вы не можете редактировать свои сообщения
Вы не можете удалять свои сообщения