Правила форума

  • В этом разделе создание новых тем Запрещено.
  • Для создания новых тем пользуйтесь Корневым разделом DVD и HD фильмы.
Начать новую темуОтветить на тему  [ Сообщений: 5 ] 
Торрент файл
Размер: 12.7 GB • Зарегистрирован: 4 года • Статус: Проверено
Скачан: 106 раз • Желающих скачать: 0 • Поблагодарили: 33 раза
 Раздают: 0  |  0 KB/s  ]   Качают: 0  |  0 KB/s  ] 
 Полного источника не было 1 день 3 часа 
Сообщения
 Добавлено: 2012-11-18 15:28
Top-releaser
Аватара пользователя
Стаж: 6 лет 7 месяцев
Сообщений: 2078
Спасибок: 3230
Лайков: 9
Изображение

Джонни Д.
Public Enemies


Год выпуска: 2009
Страна: США
Слоган: «America's Most Wanted»
Жанр: драма, криминал, биография, история
Продолжительность: 02:20:03
Перевод: Профессиональный (полное дублирование)
Режиссер: Майкл Манн
Сценарий: Ронан Беннетт, Майкл Манн, Энн Бидермен, Брайан Барроу
Продюсер: Майкл Манн, Кевин Мишер, Дж. Мак Браун, Брайан Х. Кэрролл, Гусмано Цесаретти
Оператор: Данте Спинотти
Композитор: Эллиот Голденталь
В ролях: Джонни Депп, Кристиан Бэйл, Марион Котийяр, Джованни Рибизи, Билли Крудап, Джон Ортиз, Стивен Грэм, Спенсер Гаррет, Эд Брюс, Джеймс Руссо, Дэвид Уэнэм, Кристиан Столте
Бюджет: $100 000 000
Сборы в США: $97 104 620
Сборы в России: $5 677 353
Сборы в мире: $214 104 620
Мировая премьера: 18 июня 2009
Релиз на DVD: 10 ноября 2009, «Юниверсал Пикчерс Рус»
Релиз на Blu-ray: 24 ноября 2009, «Юниверсал Пикчерс Рус»
Описание: Сюжет фильма повествует о легендарном грабителе банков Джоне Диллинджере. Дерзкие нападения сделали его выдающимся героем для всех угнетенных и главной мишенью для лучшего агента ФБР Мелвина Первиса и директора бюро Джона Эдгара Гувера. Никто не мог остановить банду Диллинджера. Ни одна тюрьма не могла его удержать. Обаяние и отчаянные побеги прославляли преступника в обществе, считавшем банки главной причиной Великой депрессии.
В то время, как приключения лихой банды, к которой примкнули Малыш Нельсон и Элвин Карпис, вдохновляли обозленных граждан, Гувер решил воспользоваться случаем и превратить Бюро расследований в главную правоохранительную организацию страны - ФБР. Он сделал Диллинджера самым опасным врагом Америки, а спасителем нарек Первиса, гордость Федерального бюро.

Раздача группы: Изображение

Изображение User Rating: 7.058 (46 662)
Изображение User Rating: 7.00 (137 489)
MPAA: R - Лицам до 17 лет обязательно присутствие взрослого
Качество: BDRip, 1080p
Формат: Matroska
Видео: AVC; 1920x800 (2.40:1); 10666 Kbps; 23,976 fps; 0,290 bit/pixel
Аудио №1: Russian; AC3; 384 Kbps; CBR; 6 ch
Аудио №2: English; DTS; 1509 Kbps; CBR; 6 ch; 24 bit
Аудио №3: English; Vorbis; 80 Kbps; 2 ch - Commentary
Аудио №4: English; Vorbis; 80 Kbps; 2 ch - Commentary

Субтитры: Russian, English, Finnish, French, Romanian, Spanish

MediaInfo
Общее
Уникальный идентификатор : 232029609994202176049854658117440499040 (0xAE8F4702D98444A5ADDFDC55C895ED60)
Полное имя : Z:\WWW\TR-Downloads\Public.Enemies.2009.1080p.[R.G.Daredevil].mkv
Формат : Matroska
Версия формата : Version 2
Размер файла : 12,7 Гбайт
Продолжительность : 2 ч. 20 м.
Режим общего битрейта : Переменный
Общий поток : 13,0 Мбит/сек
Название фильма : Public Enemies (2009)
Дата кодирования : UTC 2009-11-08 22:47:41
Программа кодирования : mkvmerge v2.9.8 ('C'est le bon') built on Aug 13 2009 12:49:06
Библиотека кодирования : libebml v0.7.7 + libmatroska v0.8.1
Attachment : Yes / Yes / Yes

Видео
Идентификатор : 1
Формат : AVC
Формат/Информация : Advanced Video Codec
Профиль формата : High@L4.1
Параметр CABAC формата : Да
Параметр ReFrames формата : 5 кадров
Идентификатор кодека : V_MPEG4/ISO/AVC
Продолжительность : 2 ч. 20 м.
Битрейт : 10,9 Мбит/сек
Ширина : 1920 пикселей
Высота : 800 пикселей
Соотношение сторон : 2,40:1
Частота кадров : 23,976 кадра/сек
Цветовое пространство : YUV
Субдискретизация насыщенности : 4:2:0
Битовая глубина : 8 бит
Тип развёртки : Прогрессивная
Бит/(Пиксели*Кадры) : 0.297
Размер потока : 10,4 Гбайт (82%)
Библиотека кодирования : x264 core 68 r1184M 88b35c2
Настройки программы : cabac=1 / ref=5 / deblock=1:-3:-3 / analyse=0x3:0x113 / me=umh / subme=9 / psy_rd=1.0:0.0 / mixed_ref=1 / me_range=32 / chroma_me=1 / trellis=2 / 8x8dct=1 / cqm=0 / deadzone=21,11 / chroma_qp_offset=-4 / threads=6 / nr=0 / decimate=1 / mbaff=0 / bframes=6 / b_pyramid=1 / b_adapt=2 / b_bias=0 / direct=1 / wpredb=1 / keyint=250 / keyint_min=25 / scenecut=40 / rc=2pass / bitrate=10923 / ratetol=1.0 / qcomp=0.60 / qpmin=10 / qpmax=51 / qpstep=4 / cplxblur=20.0 / qblur=0.5 / vbv_maxrate=50000 / vbv_bufsize=50000 / ip_ratio=1.40 / pb_ratio=1.30 / aq=1:1.00
Язык : English
Default : Да
Forced : Нет

Аудио #1
Идентификатор : 2
Формат : AC-3
Формат/Информация : Audio Coding 3
Расширение режима : CM (complete main)
Параметр Endianness формата : Big
Идентификатор кодека : A_AC3
Продолжительность : 2 ч. 20 м.
Вид битрейта : Постоянный
Битрейт : 384 Кбит/сек
Каналы : 6 каналов
Расположение каналов : Front: L C R, Side: L R, LFE
Частота : 48,0 КГц
Битовая глубина : 16 бит
Метод сжатия : С потерями
Размер потока : 385 Мбайт (3%)
Заголовок : AC3 5.1 384 kbps
Язык : Russian
Default : Да
Forced : Нет

Аудио #2
Идентификатор : 3
Формат : DTS
Формат/Информация : Digital Theater Systems
Идентификатор кодека : A_DTS
Продолжительность : 2 ч. 20 м.
Вид битрейта : Постоянный
Битрейт : 1510 Кбит/сек
Каналы : 6 каналов
Расположение каналов : Front: L C R, Side: L R, LFE
Частота : 48,0 КГц
Битовая глубина : 24 бит
Метод сжатия : С потерями
Размер потока : 1,48 Гбайт (12%)
Заголовок : DTS 5.1 1536 kbps
Язык : English
Default : Нет
Forced : Нет

Аудио #3
Идентификатор : 4
Формат : Vorbis
Параметр Floor формата : 1
Идентификатор кодека : A_VORBIS
Продолжительность : 2 ч. 20 м.
Вид битрейта : Переменный
Битрейт : 80,0 Кбит/сек
Каналы : 2 канала
Частота : 48,0 КГц
Метод сжатия : С потерями
Размер потока : 80,1 Мбайт (1%)
Заголовок : Commentary_1: English Vorbis 2.0 @ 80 Kbps
Библиотека кодирования : libVorbis 1.1.1/1.1.2 (UTC 2005-03-04)
Язык : English
Default : Нет
Forced : Нет
Программа кодирования : VLC media player

Аудио #4
Идентификатор : 5
Формат : Vorbis
Параметр Floor формата : 1
Идентификатор кодека : A_VORBIS
Продолжительность : 2 ч. 20 м.
Вид битрейта : Переменный
Битрейт : 80,0 Кбит/сек
Каналы : 2 канала
Частота : 48,0 КГц
Метод сжатия : С потерями
Размер потока : 80,1 Мбайт (1%)
Заголовок : Commentary_2: English Vorbis 2.0 @ 80 Kbps
Библиотека кодирования : libVorbis 1.1.1/1.1.2 (UTC 2005-03-04)
Язык : English
Default : Нет
Forced : Нет
Программа кодирования : VLC media player

Текст #1
Идентификатор : 6
Формат : UTF-8
Идентификатор кодека : S_TEXT/UTF8
Идентификатор кодека/Информация : UTF-8 Plain Text
Заголовок : Full
Язык : Russian
Default : Нет
Forced : Нет

Текст #2
Идентификатор : 7
Формат : UTF-8
Идентификатор кодека : S_TEXT/UTF8
Идентификатор кодека/Информация : UTF-8 Plain Text
Заголовок : Forced
Язык : Russian
Default : Нет
Forced : Нет

Текст #3
Идентификатор : 8
Формат : ASS
Идентификатор кодека : S_TEXT/ASS
Идентификатор кодека/Информация : Advanced Sub Station Alpha
Метод сжатия : Без потерь
Язык : English
Default : Да
Forced : Нет

Текст #4
Идентификатор : 9
Формат : ASS
Идентификатор кодека : S_TEXT/ASS
Идентификатор кодека/Информация : Advanced Sub Station Alpha
Метод сжатия : Без потерь
Язык : Finnish
Default : Нет
Forced : Нет

Текст #5
Идентификатор : 10
Формат : ASS
Идентификатор кодека : S_TEXT/ASS
Идентификатор кодека/Информация : Advanced Sub Station Alpha
Метод сжатия : Без потерь
Язык : French
Default : Нет
Forced : Нет

Текст #6
Идентификатор : 11
Формат : ASS
Идентификатор кодека : S_TEXT/ASS
Идентификатор кодека/Информация : Advanced Sub Station Alpha
Метод сжатия : Без потерь
Язык : Romanian
Default : Нет
Forced : Нет

Текст #7
Идентификатор : 12
Формат : ASS
Идентификатор кодека : S_TEXT/ASS
Идентификатор кодека/Информация : Advanced Sub Station Alpha
Метод сжатия : Без потерь
Язык : Spanish
Default : Нет
Forced : Нет
Свернуть
"Знаете ли Вы, что..."
  • Этот фильм - экранизация документального романа Брайана Барро «Враги общества: Величайшая волна преступности в Америке и рождение ФБР».
  • Планировалось, что главную роль сыграет Леонардо ДиКаприо.
  • В фильме Джонни Депп говорит одному из посетителей банка: «Нам нужны не ваши деньги, а только деньги банка». Такую же фразу произносит герой Роберт Де Ниро в картине Манна «Схватка».
  • Съемки фильма прошли в семи городах штата Иллинойс, семи городах Висконсина, в одном из городов Индианы, а также в Майями.
  • В результате забастовки сценаристов режиссер Майкл Манн смог привлечь к проекту Джонни Деппа и Марион Котийяр, так как проекты, в которых они в то время снимались, были отложены. Джонни Депп готовился к съемкам в фильме «Шантарам»(2011), режиссер Мира Наир, а Котийяр репетировала роль в мюзикле Роба Маршалла «Девять»(2009).
  • Картина открывается смертью Красавчика Флойда. На самом деле Флойд был убит уже после Джона Диллинджера.
  • В картине во время перестрелки в «Маленькой Богемии» был убит Нельсон, Ван Митер и другие преступники. На самом же деле никто из преступников убит не был, был только ранен Пит Пирпойнт (который почему-то в фильме в это время сидел в тюрьме, что противоречит действительности). «Маленькая Богемия» осталась одной из позорных страниц в истории ФБР: все преступники сбежали, а агенты убили ни в чём не повинного местного жителя и ранили нескольких; также был убит один из агентов ФБР.
Свернуть
Скриншоты

Изображение
Изображение
Изображение
Изображение
Изображение
Свернуть
Не в сети
Профиль  
 Добавлено: 2012-11-18 15:43 (спустя 15 минут)
Модератор
Аватара пользователя
Стаж: 6 лет 10 месяцев
Возраст: 33
Сообщений: 5908
Спасибок: 61260
Лайков: 3540
:co_ol:
_________________
ИзображениеИзображение Изображение
Изображение
Не в сети
Профиль  
 Добавлено: 2013-03-25 18:54 (спустя 4 месяца 7 дней)
Аватара пользователя
Стаж: 8 лет
Сообщений: 1391
Спасибок: 39
Лайков: 64
:ne_ne: окончательно убедился, что фильм - отстой...из Деппа Диллинджер как из меня Депп...спасибо за качаство :co_ol:
Не в сети
Профиль  
 Добавлено: 2014-06-14 11:26 (спустя 1 год 2 месяца)
Стаж: 6 лет 5 месяцев
Сообщений: 21
Лайков: 1

ferguson:

:ne_ne: окончательно убедился, что фильм - отстой...из Деппа Диллинджер как из меня Депп...спасибо за качаство :co_ol:
У тебя извращенный вкус,видимо. С кем ни смотрел-всем нравится.
Не в сети
Профиль  
 Добавлено: 2014-06-14 14:34 (спустя 3 часа)
Аватара пользователя
Стаж: 8 лет 9 месяцев
Сообщений: 1170
Спасибок: 1294
Лайков: 7
классный фильм, не слишком оцененный в свое время
Не в сети
Профиль  
Начать новую темуОтветить на тему  [ Сообщений: 5 ] 
Вы не можете начинать темы
Вы не можете отвечать на сообщения
Вы не можете редактировать свои сообщения
Вы не можете удалять свои сообщения