Правила форума

  • В этом разделе создание новых тем Запрещено.
  • Для создания новых тем пользуйтесь Корневым разделом DVD и HD фильмы.
Начать новую темуОтветить на тему  [ Сообщений: 4 ] 
Торрент файл
Размер: 11.52 GB • Зарегистрирован: 4 года 1 месяц • Статус: Проверено
Скачан: 52 раза • Желающих скачать: 0 • Поблагодарили: 22 раза
 Раздают: 0  |  0 KB/s  ]   Качают: 0  |  0 KB/s  ] 
 Полного источника не было 5 часов 
Сообщения
 Добавлено: 2012-10-17 18:37
Top-releaser
Аватара пользователя
Стаж: 6 лет 7 месяцев
Сообщений: 2078
Спасибок: 3230
Лайков: 9
Изображение

Джуманджи
Jumanji


Год выпуска: 1995
Страна: США
Слоган: «Эта игра заставит Вас поверить в чудеса»
Жанр: фэнтези, триллер, приключения, семейный
Продолжительность: 01:44:06
Перевод: Профессиональный (полное дублирование)
Режиссер: Джо Джонстон
Сценарий: Крис Ван Оллсбёрг, Грег Тейлор, Джим Стрэйн, Джонатан Хенсли
Продюсер: Роберт В. Корт, Тед Филд, Ларри Дж. Франко, Скотт Крупф, Уильям Тейтлер
Оператор: Томас Экермен
Композитор: Джеймс Хорнер
В ролях: Робин Уильямс, Бонни Хант, Кирстен Данст, Брэдли Пирс, Биби Ньювирт, Джонатан Хайд, Дэвид Алан Грир, Патришия Кларксон, Адам Хэнн-Берд, Лаура Белл Банди, Джеймс Хэнди, Джиллиан Барбер
Бюджет: $65 000 000
Сборы в США: $100 475 249
Сборы в мире: $262 797 249
Мировая премьера: 15 декабря 1995
Описание: Случайно обнаружив настольную игру со странным названием «Джуманджи» Алан Пэрриш, не зная о ее сверхъестественных свойствах, на глазах изумленной подружки переносится в джунгли.
Долгие годы он находится в потустороннем мире, до тех пор, пока двое ни о чем не подозревающих подростков не находят игру и не снимают волшебные чары, освобождая Алана из многолетнего плена.
Теперь им предстоит решить нелегкую задачу - победить могущественную силу игры, пройти немыслимые препятствия и одержать победу над силами Магии!


Изображение User Rating: 7.827 (49 680)
Изображение User Rating: 6.60 (96 087)
MPAA: PG - Рекомендуется присутствие родителей
Качество: BDRip, 1080p
Формат: Matroska
Видео: AVC; 1920x1038 (1.850); 11039 Kbps; 23,976 fps; 0,231 bit/pixel
Аудио №1: Russian; AC3; 448 Kbps; CBR; 6 ch - Дубляж
Аудио №2: Russian; DTS; 754 Kbps; CBR; 6 ch; 24 bit - Профессиональный многоголосый закадровый (Superbit)
Аудио №3: Russian; AC3; 192 Kbps; CBR; 2 ch - Профессиональный многоголосый закадровый (ВидеоСервис)
Аудио №4: Russian; DTS; 754 Kbps; CBR; 6 ch; 24 bit - Авторский одноголосый закадровый (Гаврилов)
Аудио №5: Russian; AC3; 448 Kbps; CBR; 6 ch - Авторский одноголосый закадровый (Живов)
Аудио №6: Russian; AC3; 192 Kbps; CBR; 2 ch - Авторский одноголосый закадровый (Визгунов)
Аудио №7: Russian; AC3; 192 Kbps; CBR; 2 ch - Авторский одноголосый закадровый (Гаврилов (ранний))
Аудио №8: English; DTS; 1509 Kbps; CBR; 6 ch; 24 bit
Субтитры: Russian, English

MediaInfo
Общее
Уникальный идентификатор : 246673938809986170850498933560432280866 (0xB993AC2AA0106D669ECA0E05665E4522)
Полное имя : Z:\WWW\TR-Downloads\Jumanji.1080p[R.G.Daredevil].mkv
Формат : Matroska
Версия формата : Version 1
Размер файла : 11,5 Гбайт
Продолжительность : 1 ч. 44 м.
Общий поток : 15,8 Мбит/сек
Дата кодирования : UTC 2011-06-30 04:14:43
Программа кодирования : mkvmerge v2.4.1 ('Use Me') built on Dec 5 2008 18:30:05
Библиотека кодирования : libebml v0.7.7 + libmatroska v0.8.1

Видео
Идентификатор : 1
Формат : AVC
Формат/Информация : Advanced Video Codec
Профиль формата : High@L4.1
Параметр CABAC формата : Да
Параметр ReFrames формата : 4 кадра
Идентификатор кодека : V_MPEG4/ISO/AVC
Продолжительность : 1 ч. 44 м.
Битрейт : 11,4 Мбит/сек
Ширина : 1920 пикселей
Высота : 1038 пикселей
Соотношение сторон : 1,85:1
Частота кадров : 23,976 кадра/сек
Цветовое пространство : YUV
Субдискретизация насыщенности : 4:2:0
Битовая глубина : 8 бит
Тип развёртки : Прогрессивная
Бит/(Пиксели*Кадры) : 0.238
Размер потока : 8,03 Гбайт (70%)
Библиотека кодирования : x264 core 115 r2008+578 3864dbe
Настройки программы : cabac=1 / ref=4 / deblock=1:-3:-3 / analyse=0x3:0x113 / me=umh / subme=9 / psy=1 / fade_compensate=0.00 / psy_rd=1.05:0.10 / mixed_ref=1 / me_range=32 / chroma_me=1 / trellis=2 / 8x8dct=1 / cqm=1 / deadzone=21,11 / fast_pskip=0 / chroma_qp_offset=-2 / threads=12 / sliced_threads=0 / nr=0 / decimate=1 / interlaced=0 / bluray_compat=0 / constrained_intra=0 / fgo=0 / bframes=6 / b_pyramid=2 / b_adapt=2 / b_bias=0 / direct=3 / weightb=1 / open_gop=0 / weightp=2 / keyint=250 / keyint_min=23 / scenecut=40 / intra_refresh=0 / rc_lookahead=60 / rc=2pass / mbtree=1 / bitrate=11363 / ratetol=2.0 / qcomp=0.70 / qpmin=3 / qpmax=69 / qpstep=4 / cplxblur=20.0 / qblur=0.5 / vbv_maxrate=40000 / vbv_bufsize=30000 / nal_hrd=none / ip_ratio=1.40 / aq=1:0.90
Язык : English
Default : Да
Forced : Нет

Аудио #1
Идентификатор : 2
Формат : AC-3
Формат/Информация : Audio Coding 3
Расширение режима : CM (complete main)
Параметр Endianness формата : Big
Идентификатор кодека : A_AC3
Продолжительность : 1 ч. 44 м.
Вид битрейта : Постоянный
Битрейт : 448 Кбит/сек
Каналы : 6 каналов
Расположение каналов : Front: L C R, Side: L R, LFE
Частота : 48,0 КГц
Битовая глубина : 16 бит
Метод сжатия : С потерями
Задержка видео : 975 мс.
Размер потока : 334 Мбайт (3%)
Заголовок : AC3 ~448 kbps, 6 ch. | Dub
Язык : Russian
Default : Да
Forced : Нет

Аудио #2
Идентификатор : 3
Формат : DTS
Формат/Информация : Digital Theater Systems
Идентификатор кодека : A_DTS
Продолжительность : 1 ч. 44 м.
Вид битрейта : Постоянный
Битрейт : 755 Кбит/сек
Каналы : 6 каналов
Расположение каналов : Front: L C R, Side: L R, LFE
Частота : 48,0 КГц
Битовая глубина : 24 бит
Метод сжатия : С потерями
Задержка видео : 975 мс.
Размер потока : 562 Мбайт (5%)
Заголовок : DTS ~768 kbps, 6 ch. | MVO (Superbit)
Язык : Russian
Default : Нет
Forced : Нет

Аудио #3
Идентификатор : 4
Формат : AC-3
Формат/Информация : Audio Coding 3
Расширение режима : CM (complete main)
Параметр Endianness формата : Big
Идентификатор кодека : A_AC3
Продолжительность : 1 ч. 44 м.
Вид битрейта : Постоянный
Битрейт : 192 Кбит/сек
Каналы : 2 канала
Расположение каналов : Front: L R
Частота : 48,0 КГц
Битовая глубина : 16 бит
Метод сжатия : С потерями
Задержка видео : 975 мс.
Размер потока : 143 Мбайт (1%)
Заголовок : AC3 ~192 kbps, 2 ch. | MVO (ВидеоСервис)
Язык : Russian
Default : Нет
Forced : Нет

Аудио #4
Идентификатор : 5
Формат : DTS
Формат/Информация : Digital Theater Systems
Идентификатор кодека : A_DTS
Продолжительность : 1 ч. 44 м.
Вид битрейта : Постоянный
Битрейт : 755 Кбит/сек
Каналы : 6 каналов
Расположение каналов : Front: L C R, Side: L R, LFE
Частота : 48,0 КГц
Битовая глубина : 24 бит
Метод сжатия : С потерями
Задержка видео : 975 мс.
Размер потока : 562 Мбайт (5%)
Заголовок : DTS ~768 kbps, 6 ch. | AVO (Гаврилов)
Язык : Russian
Default : Нет
Forced : Нет

Аудио #5
Идентификатор : 6
Формат : AC-3
Формат/Информация : Audio Coding 3
Расширение режима : CM (complete main)
Параметр Endianness формата : Big
Идентификатор кодека : A_AC3
Продолжительность : 1 ч. 44 м.
Вид битрейта : Постоянный
Битрейт : 448 Кбит/сек
Каналы : 6 каналов
Расположение каналов : Front: L C R, Side: L R, LFE
Частота : 48,0 КГц
Битовая глубина : 16 бит
Метод сжатия : С потерями
Задержка видео : 975 мс.
Размер потока : 334 Мбайт (3%)
Заголовок : AC3 ~448 kbps, 6 ch. | AVO (Живов)
Язык : Russian
Default : Нет
Forced : Нет

Аудио #6
Идентификатор : 7
Формат : AC-3
Формат/Информация : Audio Coding 3
Расширение режима : CM (complete main)
Параметр Endianness формата : Big
Идентификатор кодека : A_AC3
Продолжительность : 1 ч. 44 м.
Вид битрейта : Постоянный
Битрейт : 192 Кбит/сек
Каналы : 2 канала
Расположение каналов : Front: L R
Частота : 48,0 КГц
Битовая глубина : 16 бит
Метод сжатия : С потерями
Задержка видео : 975 мс.
Размер потока : 143 Мбайт (1%)
Заголовок : AC3 ~192 kbps, 2 ch. | AVO (Визгунов)
Язык : Russian
Default : Нет
Forced : Нет

Аудио #7
Идентификатор : 8
Формат : AC-3
Формат/Информация : Audio Coding 3
Расширение режима : CM (complete main)
Параметр Endianness формата : Big
Идентификатор кодека : A_AC3
Продолжительность : 1 ч. 44 м.
Вид битрейта : Постоянный
Битрейт : 192 Кбит/сек
Каналы : 2 канала
Расположение каналов : Front: L R
Частота : 48,0 КГц
Битовая глубина : 16 бит
Метод сжатия : С потерями
Задержка видео : 975 мс.
Размер потока : 143 Мбайт (1%)
Заголовок : AC3 ~192 kbps, 2 ch. | AVO (Гаврилов (ранний))
Язык : Russian
Default : Нет
Forced : Нет

Аудио #8
Идентификатор : 9
Формат : DTS
Формат/Информация : Digital Theater Systems
Идентификатор кодека : A_DTS
Продолжительность : 1 ч. 44 м.
Вид битрейта : Постоянный
Битрейт : 1510 Кбит/сек
Каналы : 6 каналов
Расположение каналов : Front: L C R, Side: L R, LFE
Частота : 48,0 КГц
Битовая глубина : 24 бит
Метод сжатия : С потерями
Размер потока : 1,10 Гбайт (10%)
Заголовок : DTS ~1510 kbps, 6 ch.
Язык : English
Default : Нет
Forced : Нет

Текст #1
Идентификатор : 10
Формат : UTF-8
Идентификатор кодека : S_TEXT/UTF8
Идентификатор кодека/Информация : UTF-8 Plain Text
Язык : Russian
Default : Да
Forced : Нет

Текст #2
Идентификатор : 11
Формат : UTF-8
Идентификатор кодека : S_TEXT/UTF8
Идентификатор кодека/Информация : UTF-8 Plain Text
Язык : English
Default : Нет
Forced : Нет
Свернуть
Скриншоты

Изображение
Изображение
Изображение
Изображение
Изображение
Свернуть
Не в сети
Профиль  
 Добавлено: 2013-07-31 19:25 (спустя 9 месяцев)
Стаж: 5 лет 11 месяцев
Сообщений: 19
раздайте
Не в сети
Профиль  
 Добавлено: 2014-04-20 17:23 (спустя 8 месяцев)
Стаж: 8 лет 6 месяцев
Сообщений: 28
Скорости.
Не в сети
Профиль  
 Добавлено: 2014-06-07 17:32 (спустя 1 месяц 17 дней)
Аватара пользователя
Стаж: 8 лет 3 месяца
Сообщений: 67
Новым взглядом посмотрел на фильм.
(По сути-же про приставочные игры кино.)
Не в сети
Профиль  
Начать новую темуОтветить на тему  [ Сообщений: 4 ] 
Вы не можете начинать темы
Вы не можете отвечать на сообщения
Вы не можете редактировать свои сообщения
Вы не можете удалять свои сообщения