Правила форума

  • В этом разделе создание новых тем Запрещено.
  • Для создания новых тем пользуйтесь Корневым разделом DVD и HD фильмы.
Начать новую темуОтветить на тему  [ Сообщений: 3 ] 
Торрент файл
Размер: 10.63 GB • Зарегистрирован: 4 года 6 месяцев • Статус: Проверено
Скачан: 27 раз • Желающих скачать: 0 • Поблагодарили: 13 раз
 Раздают: 0  |  0 KB/s  ]   Качают: 0  |  0 KB/s  ] 
 Полного источника не было 2 месяца 23 дня 
Сообщения
 Добавлено: 2012-05-13 09:57
Инквизитор
Аватара пользователя
Стаж: 8 лет 8 месяцев
Сообщений: 3753
Спасибок: 28360
Лайков: 9
Изображение

Дневник баскетболиста / The Basketball Diaries


Год выпуска: 1995
Страна: США
Слоган: «Every punk on the block says it's not going to happen to them... but it does.»
Жанр: драма, криминал, биография, спорт
Продолжительность: 01:41:59
Перевод: Оригинальный; Профессиональный (многоголосый, закадровый) R5; Профессиональный (многоголосый, закадровый) НТВ+
Режиссер: Скотт Кэлверт
Сценарий: Брайан Голубофф, Джим Кэррол
Продюсер: Крис Блэкуелл, Дэн Дженетти, Лиз Хеллер
Оператор: Дэвид Филлипс
Композитор: Грэм Ревелл
В ролях: Леонардо ДиКаприо, Лоррейн Бракко, Мэрилин Сокол, Джеймс Мадио, Патрик МакГоу, Марк Уолберг, Рой Купер, Винсент Пасторе, Бруно Кёрби
Сборы в США: $2 381 087
Описание: Опий умеет ждать… В его власти, когда-нибудь, будет и Джим. За очередную дозу он готов воровать, убивать, продаваться! Это будет… когда-нибудь… Дело времени… Опий умеет ждать. Повесть о погружении на самое дно улицы известного музыканта и поэта Джима Кэролла. Снятая в жестоком стиле, картина которая шокирует своими откровенными сценами.
Изображение
MPAA:
Мировая премьера: 21 апреля 1995
Раздача группы: Изображение
Качество: BDRip, 1080p
Формат: Matroska
Видео: AVC; 1920x1080 (16:9); 12213 Kbps; 23,976 fps; 0,246 bit/pixel
Аудио №1: Russian; AC3; 448 Kbps; CBR; 6 ch
Аудио №2: Russian; AC3; 448 Kbps; CBR; 6 ch
Аудио №3: DTS; 1509 Kbps; CBR; 6 ch; 24 bit

Субтитры №1: Russian
Субтитры №2: English

"Знаете ли Вы, что..."
  • Фильм включен в список запрещённых к распространению в Республике Беларусь.
  • Изначально на роль Джима Кэррола был утвержден Ривер Феникс, который умер от передозировки наркотиков до начала съемок.
  • Роль тренера по баскетболу была предложена Стивена Лэнгу, но он отказался, ссылаясь на то, что книга в сценарии фильма была сильно изменена.
  • Майкл Империоли, сыгравший лучшего друга Джима, Бобби; Лоррейн Бракко, сыгравшая маму Джима, и Винсент Пасторе, сыгравший человека на пароме, который гоняется за главными героями в начале фильма, впоследствии сыграли главные роли в популярном сериале «Клан Сопрано».
  • Фильм является экранизацией автобиографического романа реального Джима Кэрролла.
Свернуть
M.I.
Общее
Уникальный идентификатор                 : 176540386046036643509825830646478650436 (0x84D0710BE8D491F69584A773C9B1BC44)
Полное имя                               : K:\Фильмы\The.Basketball.Diaries.1995.1080p.BluRay.Rus.Eng.mkv
Формат                                   : Matroska
Версия формата                           : Version 2
Размер файла                             : 10,6 Гбайт
Продолжительность                        : 1 ч. 41 м.
Общий поток                              : 14,9 Мбит/сек
Название фильма                          : The Basketball Diaries [1080p]
Дата кодирования                         : UTC 2010-11-14 18:52:24
Программа кодирования                    : mkvmerge v4.4.0 ('Die Wiederkehr') built on Oct 31 2010 21:52:48
Библиотека кодирования                   : libebml v1.0.0 + libmatroska v1.0.0

Видео
Идентификатор                            : 1
Формат                                   : AVC
Формат/Информация                        : Advanced Video Codec
Профиль формата                          : High@L4.1
Параметр CABAC формата                   : Да
Параметр ReFrames формата                : 5 кадров
Идентификатор кодека                     : V_MPEG4/ISO/AVC
Продолжительность                        : 1 ч. 41 м.
Битрейт                                  : 12,5 Мбит/сек
Ширина                                   : 1920 пикселей
Высота                                   : 1080 пикселей
Соотношение сторон                       : 16:9
Частота кадров                           : 23,976 кадра/сек
Цветовое пространство                    : YUV
Субдискретизация насыщенности            : 4:2:0
Битовая глубина                          : 8 бит
Тип развёртки                            : Прогрессивная
Бит/(Пиксели*Кадры)                      : 0.252
Размер потока                            : 8,70 Гбайт (82%)
Заголовок                                : The Basketball Diaries
Библиотека кодирования                   : x264 core 84 r1400M 20fa784
Настройки программы                      : cabac=1 / ref=5 / deblock=1:-3:-3 / analyse=0x3:0x113 / me=umh / subme=9 / psy=1 / psy_rd=1.4:0.0 / mixed_ref=1 / me_range=24 / chroma_me=1 / trellis=2 / 8x8dct=1 / cqm=0 / deadzone=21,11 / fast_pskip=1 / chroma_qp_offset=-2 / threads=6 / sliced_threads=0 / nr=0 / decimate=1 / mbaff=0 / constrained_intra=0 / bframes=6 / b_pyramid=2 / b_adapt=2 / b_bias=0 / direct=3 / wpredb=1 / wpredp=2 / keyint=250 / keyint_min=25 / scenecut=40 / intra_refresh=0 / rc_lookahead=80 / rc=2pass / mbtree=1 / bitrate=12508 / ratetol=1.0 / qcomp=0.80 / qpmin=10 / qpmax=51 / qpstep=4 / cplxblur=20.0 / qblur=0.5 / ip_ratio=1.40 / aq=1:0.75 / pulldown=0 / nal_hrd=0
Язык                                     : English
Default                                  : Да
Forced                                   : Нет

Аудио #1
Идентификатор                            : 2
Формат                                   : AC-3
Формат/Информация                        : Audio Coding 3
Расширение режима                        : CM (complete main)
Идентификатор кодека                     : A_AC3
Продолжительность                        : 1 ч. 41 м.
Вид битрейта                             : Постоянный
Битрейт                                  : 448 Кбит/сек
Каналы                                   : 6 каналов
Расположение каналов                     : Front: L C R, Side: L R, LFE
Частота                                  : 48,0 КГц
Битовая глубина                          : 16 бит
Метод сжатия                             : С потерями
Размер потока                            : 327 Мбайт (3%)
Заголовок                                : RUS, R5
Язык                                     : Russian
Default                                  : Да
Forced                                   : Нет

Аудио #2
Идентификатор                            : 3
Формат                                   : AC-3
Формат/Информация                        : Audio Coding 3
Расширение режима                        : CM (complete main)
Идентификатор кодека                     : A_AC3
Продолжительность                        : 1 ч. 41 м.
Вид битрейта                             : Постоянный
Битрейт                                  : 448 Кбит/сек
Каналы                                   : 6 каналов
Расположение каналов                     : Front: L C R, Side: L R, LFE
Частота                                  : 48,0 КГц
Битовая глубина                          : 16 бит
Метод сжатия                             : С потерями
Размер потока                            : 327 Мбайт (3%)
Заголовок                                : RUS, NTV
Язык                                     : Russian
Default                                  : Нет
Forced                                   : Нет

Аудио #3
Идентификатор                            : 4
Формат                                   : DTS
Формат/Информация                        : Digital Theater Systems
Идентификатор кодека                     : A_DTS
Продолжительность                        : 1 ч. 41 м.
Вид битрейта                             : Постоянный
Битрейт                                  : 1510 Кбит/сек
Каналы                                   : 6 каналов
Расположение каналов                     : Front: L C R, Side: L R, LFE
Частота                                  : 48,0 КГц
Битовая глубина                          : 24 бит
Метод сжатия                             : С потерями
Размер потока                            : 1,08 Гбайт (10%)
Заголовок                                : ENG
Язык                                     : English
Default                                  : Нет
Forced                                   : Нет

Текст #1
Идентификатор                            : 5
Формат                                   : UTF-8
Идентификатор кодека                     : S_TEXT/UTF8
Идентификатор кодека/Информация          : UTF-8 Plain Text
Заголовок                                : RUS
Язык                                     : Russian
Default                                  : Нет
Forced                                   : Нет

Текст #2
Идентификатор                            : 6
Формат                                   : UTF-8
Идентификатор кодека                     : S_TEXT/UTF8
Идентификатор кодека/Информация          : UTF-8 Plain Text
Заголовок                                : ENG
Язык                                     : English
Default                                  : Нет
Forced                                   : Нет

Меню
00:00:00.000                             : en:Chapter 1
00:06:08.444                             : en:Chapter 2
00:11:22.699                             : en:Chapter 3
00:15:56.162                             : en:Chapter 4
00:23:29.150                             : en:Chapter 5
00:26:20.717                             : en:Chapter 6
00:29:39.204                             : en:Chapter 7
00:34:00.185                             : en:Chapter 8
00:40:06.541                             : en:Chapter 9
00:46:10.201                             : en:Chapter 10
00:53:27.316                             : en:Chapter 11
00:56:55.327                             : en:Chapter 12
00:58:42.181                             : en:Chapter 13
01:03:13.251                             : en:Chapter 14
01:07:41.061                             : en:Chapter 15
01:15:18.398                             : en:Chapter 16
01:20:09.953                             : en:Chapter 17
01:25:04.463                             : en:Chapter 18
01:28:46.957                             : en:Chapter 19
01:33:07.112                             : en:Chapter 20
01:38:45.548                             : en:Chapter 21
Свернуть
Скриншоты

Изображение
Изображение
Изображение
Изображение
Свернуть



Последний раз редактировалось Биг 2013-10-08 19:32, всего редактировалось 1 раз.
Не в сети
Профиль  
 Добавлено: 2012-05-19 06:25 (спустя 5 дней)
Аватара пользователя
Стаж: 5 лет 11 месяцев
Сообщений: 34
Лайков: 1
Автору респект!!!Фильм бомба!!!
 DJoKeR777 нравится это.
Не в сети
Профиль  
 Добавлено: 2013-10-08 19:32 (спустя 1 год 4 месяца)
Аватара пользователя
Стаж: 8 лет 7 месяцев
Сообщений: 1702
Спасибок: 104
Лайков: 152
офигеть... вот это сильный фильм! серьезно все... я тут с трех литров пива помираю.. а оказывается все намного жестче... очень жизнь в этом фильме по реалу...эхх...не дай бог никому, аж до слез...
"реквием по мечте" типа того еще.... жестоко все...


Тема поднималась пользователем Биг 2013-10-08 19:32.
Не в сети
Профиль  
Начать новую темуОтветить на тему  [ Сообщений: 3 ] 
Вы не можете начинать темы
Вы не можете отвечать на сообщения
Вы не можете редактировать свои сообщения
Вы не можете удалять свои сообщения