Правила форума

  • В этом разделе создание новых тем Запрещено.
  • Для создания новых тем пользуйтесь Корневым разделом DVD и HD фильмы.
Начать новую темуОтветить на тему  [ 1 сообщение ] 
Торрент файл
Размер: 7.58 GB • Зарегистрирован: 4 года 6 месяцев • Статус: Проверено
Скачан: 21 раз • Желающих скачать: 0 • Поблагодарили: 3 раза
 Раздают: 0  |  0 KB/s  ]   Качают: 0  |  0 KB/s  ] 
 Полного источника не было 2 года 2 месяца 
Сообщения
 Добавлено: 2013-06-22 22:09
Аватара пользователя
Стаж: 8 лет 9 месяцев
Сообщений: 59
Спасибок: 336
Дневники мертвецов / Diary of the Dead

Изображение


Год выпуска: 2007
Страна: США
Слоган: «Последний фильм на Земле»
Жанр: Ужасы, триллер, фэнтези
Продолжительность: 1:35:38
Перевод: Профессиональный (дубляж)

Режиссёр: Джордж А. Ромеро
Сценарист: Джордж А. Ромеро
Продюсер: Арт Шпигель, Сэм Энглебардт, Питер Грюнвольд
Оператор: Адам Свика
Композитор: Норман Оренштейн
В ролях: Мишель Морган, Джошуа Клоуз, Шоун Робертс, Эми Чупак Лалонд, Джо Диникол, Скотт Вентуорф, Филип Риччио, Крис Вайолетт, Татьяна Маслани, Тодд Шредер.
Описание: Во время съемок фильма ужасов Джейсон Крид и его друзья, студенты колледжа, узнают невероятную новость: вымысел превратился в реальность, мертвецы восстали из мертвых! Испуганные и растерянные, ребята в страхе бегут домой, надеясь найти укрытие в родных стенах, но вскоре понимают, что возвращаться им больше некуда.

Все, что было дорого Джейсону и его друзьям, все их надежды и мечты были растерзаны молчаливой толпой живых мертвецов. У них осталась только одна причина жить: фильм, который станет последней кинохроникой умирающей цивилизации. Ради возможности добавить еще одну печальную запись в «Дневники мертвецов», Джейсон не остановит съемку, даже когда зомби начнут разрывать на части его друзей.
Рейтинг MPAA: Рейтинг R (Подростки до 17 лет допускаются на фильм только в сопровождении одного из родителей)
Мировая премьера: 8 сентября 2007
Премьера в России: 3 апреля 2008
Бюджет: $2 000 000
Кассовые сборы: $5 188 775
Изображение Изображение

Качество: BDRip 1080p
Формат: MKV
Видео кодек: H.264
Аудио кодек: DTS, AC3.
Видео: х.264, 23,976 fps, 1920х1080, ~9129 kbps
Аудио #1: Русский DTS 5.1, 48 KHz, 1536 kbps [Профессиональный (дубляж)]
Аудио #2: Английский AC3 5.1, 48 KHz, 640 kbps
Аудио #3: Английский OGG 2.0, 48 KHz, 64 kbps - Комментарии
Субтитры: русские, английские

Скриншоты
Изображение
Изображение
Изображение
Свернуть


"=MI"
General
Unique ID : 225415642915564938752002303812726407745 (0xA9957941F10B8F2A9B1372FE0B2FC241)
Complete name : D:\Вова\Кино\Дневники мертвецов.2008.Bluray.1080p.AC3.x264-CHD.mkv
Format : Matroska
Format version : Version 2
File size : 7.58 GiB
Duration : 1h 35mn
Overall bit rate mode : Variable
Overall bit rate : 11.3 Mbps
Movie name : zack
Encoded date : UTC 2009-08-08 07:29:25
Writing application : mkvmerge v2.9.7 ('Tenderness') built on Jul 1 2009 18:43:35
Writing library : libebml v0.7.7 + libmatroska v0.8.1
Attachment : Yes / Yes / Yes

Video
ID : 1
Format : AVC
Format/Info : Advanced Video Codec
Format profile : High@L4.1
Format settings, CABAC : Yes
Format settings, ReFrames : 4 frames
Codec ID : V_MPEG4/ISO/AVC
Duration : 1h 35mn
Bit rate : 9 129 Kbps
Width : 1 920 pixels
Height : 1 080 pixels
Display aspect ratio : 16:9
Frame rate : 23.976 fps
Color space : YUV
Chroma subsampling : 4:2:0
Bit depth : 8 bits
Scan type : Progressive
Bits/(Pixel*Frame) : 0.184
Stream size : 5.95 GiB (78%)
Title : Diary.of.the.Dead.2008.Bluray.1080p.AC3.x264-CHD
Writing library : x264 core 67 r1153M 7b6ce6a
Encoding settings : cabac=1 / ref=4 / deblock=1:-3:-3 / analyse=0x3:0x113 / me=umh / subme=9 / psy_rd=1.2:0.3 / mixed_ref=1 / me_range=26 / chroma_me=1 / trellis=1 / 8x8dct=1 / cqm=2 / deadzone=21,11 / chroma_qp_offset=-4 / threads=6 / nr=0 / decimate=1 / mbaff=0 / bframes=3 / b_pyramid=1 / b_adapt=1 / b_bias=0 / direct=3 / wpredb=1 / keyint=250 / keyint_min=25 / scenecut=40 / rc=2pass / bitrate=9129 / ratetol=1.0 / qcomp=0.60 / qpmin=10 / qpmax=51 / qpstep=4 / cplxblur=20.0 / qblur=0.5 / ip_ratio=1.40 / pb_ratio=1.30 / aq=1:1.00
Language : English
Default : Yes
Forced : No

Audio #1
ID : 2
Format : DTS
Format/Info : Digital Theater Systems
Codec ID : A_DTS
Duration : 1h 35mn
Bit rate mode : Constant
Bit rate : 1 510 Kbps
Channel(s) : 6 channels
Channel positions : Front: L C R, Side: L R, LFE
Sampling rate : 48.0 KHz
Bit depth : 24 bits
Compression mode : Lossy
Stream size : 1.01 GiB (13%)
Title : [D] DTS 5.1 ch 1536 kbps
Language : Russian
Default : Yes
Forced : No

Audio #2
ID : 3
Format : AC-3
Format/Info : Audio Coding 3
Mode extension : CM (complete main)
Format settings, Endianness : Big
Codec ID : A_AC3
Duration : 1h 35mn
Bit rate mode : Constant
Bit rate : 640 Kbps
Channel(s) : 6 channels
Channel positions : Front: L C R, Side: L R, LFE
Sampling rate : 48.0 KHz
Bit depth : 16 bits
Compression mode : Lossy
Stream size : 438 MiB (6%)
Title : [O] AC3 5.1 ch 640 kbps
Language : English
Default : No
Forced : No

Audio #3
ID : 4
Format : Vorbis
Format settings, Floor : 1
Codec ID : A_VORBIS
Duration : 1h 35mn
Bit rate mode : Variable
Bit rate : 64.0 Kbps
Channel(s) : 2 channels
Sampling rate : 48.0 KHz
Compression mode : Lossy
Stream size : 43.8 MiB (1%)
Title : [O] Vorbis Ogg 2.0 ch 64 kbps [Commentary]
Writing library : libVorbis 1.1.1/1.1.2 (UTC 2005-03-04)
Language : English
Default : No
Forced : No

Text #1
ID : 5
Format : UTF-8
Codec ID : S_TEXT/UTF8
Codec ID/Info : UTF-8 Plain Text
Language : Russian
Default : No
Forced : No

Text #2
ID : 6
Format : UTF-8
Codec ID : S_TEXT/UTF8
Codec ID/Info : UTF-8 Plain Text
Language : English
Default : No
Forced : No

Menu
00:00:00.000 : en:00:00:00.000
00:04:52.876 : en:00:04:52.876
00:07:55.934 : en:00:07:55.934
00:10:51.693 : en:00:10:51.693
00:14:02.258 : en:00:14:02.258
00:19:36.926 : en:00:19:36.926
00:22:07.368 : en:00:22:07.368
00:25:56.180 : en:00:25:56.180
00:30:49.931 : en:00:30:49.931
00:35:19.701 : en:00:35:19.701
00:41:05.672 : en:00:41:05.672
00:45:00.281 : en:00:45:00.281
00:48:41.961 : en:00:48:41.961
00:53:40.217 : en:00:53:40.217
00:57:31.323 : en:00:57:31.323
01:02:32.123 : en:01:02:32.123
01:05:41.521 : en:01:05:41.521
01:08:08.376 : en:01:08:08.376
01:10:27.140 : en:01:10:27.140
01:15:03.708 : en:01:15:03.708
01:18:01.427 : en:01:18:01.427
01:22:00.207 : en:01:22:00.207
01:27:22.487 : en:01:27:22.487
01:30:14.826 : en:01:30:14.826


Свернуть


Тема поднималась пользователем uzu 2013-06-22 22:09.
Не в сети
Профиль  
Начать новую темуОтветить на тему  [ 1 сообщение ] 
Вы не можете начинать темы
Вы не можете отвечать на сообщения
Вы не можете редактировать свои сообщения
Вы не можете удалять свои сообщения