Правила форума

  • В этом разделе создание новых тем Запрещено.
  • Для создания новых тем пользуйтесь Корневым разделом DVD и HD фильмы.
Начать новую темуОтветить на тему  [ Сообщений: 4 ] 
Торрент файл
Размер: 2.94 GB • Зарегистрирован: 2 года 9 месяцев • Статус: T Временный релиз
Скачан: 65 раз • Желающих скачать: 0 • Поблагодарили: 25 раз
 Раздают: 0  |  0 KB/s  ]   Качают: 0  |  0 KB/s  ] 
 Полного источника не было 3 дня 
Сообщения
 Добавлено: 2014-02-16 18:18
Книголюб
Аватара пользователя
Стаж: 7 лет 2 месяца
Сообщений: 2823
Спасибок: 48824
Лайков: 73
Добро пожаловать в джунгли
Welcome to the Jungle

Изображение


Год выпуска: 2013
Страна: Пуэрто Рико, США, Великобритания
Жанр: комедия
Продолжительность: 01:34:13
Перевод: Профессиональный (двухголосый закадровый)

Режиссёр: Роб Мелцер
В ролях: Адам Броди, Жан-Клод Ван Дамм, Роб Хюбел, Кристен Шааль, Меган Бун, Деннис Хейсбёрт, Бьянка Бри, Эрик Эдельштейн, Роберт Питерс, Аарон Такахаси
Описание: Персонал дизайнерской фирмы отправляется в отпуск на тропический остров. Коллективный отдых заканчивается самым настоящим хаосом, когда герои сталкиваются с первыми серьезными трудностями.
Изображение 5.038435

Качество: HQRip 720p
Формат: MKV
Видео кодек: H.264
Аудио кодек: AC3 (Dolby Digital)
Видео: 1280x534 23.976fps 3 930 Kbps
Аудио #1: Russian: 48000Hz 6ch 448 Kbps
MediaInfo
Bits/(Pixel*Frame) : 0.240
Stream size : 2.59 GiB (88%)
Writing library : x264 core 125 r2208 d9d2288
Encoding settings : cabac=1 / ref=8 / deblock=1:-3:-3 / analyse=0x3:0x133 / me=umh / subme=11 / psy=1 / psy_rd=1.00:0.20 / mixed_ref=1 / me_range=32 / chroma_me=1 / trellis=2 / 8x8dct=1 / cqm=0 / deadzone=21,11 / fast_pskip=0 / chroma_qp_offset=-3 / threads=12 / lookahead_threads=2 / sliced_threads=0 / nr=0 / decimate=1 / interlaced=0 / bluray_compat=0 / constrained_intra=0 / bframes=8 / b_pyramid=2 / b_adapt=2 / b_bias=0 / direct=1 / weightb=1 / open_gop=0 / weightp=2 / keyint=250 / keyint_min=23 / scenecut=40 / intra_refresh=0 / rc=crf / mbtree=0 / crf=17.5 / qcomp=0.60 / qpmin=0 / qpmax=69 / qpstep=4 / ip_ratio=1.40 / pb_ratio=1.30 / aq=2:1.00
Language : English
Default : Yes
Forced : No

Audio
ID : 2
Format : AC-3
Format/Info : Audio Coding 3
Mode extension : CM (complete main)
Codec ID : A_AC3
Duration : 1h 34mn
Bit rate mode : Constant
Bit rate : 448 Kbps
Channel(s) : 6 channels
Channel positions : Front: L C R, Side: L R, LFE
Sampling rate : 48.0 KHz
Bit depth : 16 bits
Compression mode : Lossy
Stream size : 302 MiB (10%)
Language : Russian
Default : Yes
Forced : Yes

Text
ID : 3
Format : UTF-8
Codec ID : S_TEXT/UTF8
Codec ID/Info : UTF-8 Plain Text
Language : English
Default : No
Forced : No

Menu
00:00:00.000 : en:00:00:00.000
00:07:37.415 : en:00:07:37.415
00:16:20.813 : en:00:16:20.813
00:22:29.431 : en:00:22:29.431
00:30:31.872 : en:00:30:31.872
00:37:32.167 : en:00:37:32.167
00:44:06.727 : en:00:44:06.727
00:54:38.901 : en:00:54:38.901
01:05:44.983 : en:01:05:44.983
01:10:06.452 : en:01:10:06.452
01:24:13.632 : en:01:24:13.632
01:28:57.916 : en:01:28:57.916
Свернуть

Скриншоты
Изображение
Изображение
Изображение
Изображение
Свернуть
Не в сети
Профиль  
 Добавлено: 2014-02-16 21:17 (спустя 2 часа 59 минут)
Аватара пользователя
Стаж: 8 лет 2 месяца
Сообщений: 73
Спасибок: 3
Лайков: 1
Как фильм??
Не в сети
Профиль  
 Добавлено: 2014-02-25 14:03 (спустя 8 дней)
Аватара пользователя
Стаж: 7 лет 11 месяцев
Возраст: 43
Сообщений: 123
Спасибок: 4
Лайков: 2
Да, как?
Не в сети
Профиль  
 Добавлено: 2014-05-29 23:02 (спустя 3 месяца 4 дня)
Стаж: 2 года 6 месяцев
Сообщений: 1
очень интересный фильм
_____________________
http://www.aquadom.ru/catalog/plitka/
Не в сети
Профиль  
Начать новую темуОтветить на тему  [ Сообщений: 4 ] 
Вы не можете начинать темы
Вы не можете отвечать на сообщения
Вы не можете редактировать свои сообщения
Вы не можете удалять свои сообщения