Правила форума

  • В этом разделе создание новых тем Запрещено.
  • Для создания новых тем пользуйтесь Корневым разделом DVD и HD фильмы.
Начать новую темуОтветить на тему  [ Сообщений: 2 ] 
Торрент файл
Размер: 4.65 GB • Зарегистрирован: 5 лет 6 месяцев • Статус: Проверено
Скачан: 69 раз • Желающих скачать: 0 • Поблагодарили: 13 раз
 Раздают: 1  |  0 KB/s  ]   Качают: 0  |  0 KB/s  ] 
Сообщения
 Добавлено: 2011-05-18 21:41
Модератор
Аватара пользователя
Стаж: 8 лет 1 месяц
Сообщений: 1991
Спасибок: 129866
Лайков: 20
Доброе утро / Morning Glory


«Что это за история?»



Изображение
Год выпуска: 2010
Страна: Изображение США
Жанр: драма, мелодрама, комедия
Продолжительность:
01:47:28

Перевод: Профессиональный (полное дублирование) [лицензия]

Режиссер: Роджер Мичелл
Сценарий: Алин Брош МакКенна
Продюсер: Джей Джей Абрамс, Брайан Берк, Шеррил Кларк, Уди Недиви, Линдси Полстон
Оператор: Альвин Кюхлер
Композитор: Дэвид Арнольд

В ролях:
Рэйчел МакАдамс (Becky Fuller,), Харрисон Форд (Mike Pomeroy), Дайан Китон (Colleen Peck), Патрик Уилсон (Adam Bennett), Джефф Голдблюм (Jerry Barnes), Ной Бин (First Date), Ванесса Аспиллага (Anna), Джефф Хиллер (Sam - Channel 9 Producer), Джон Пэнкоу (Lenny Bergman), Линда Пауэлл (Louanne), Майк Хайдек (Ralph), Джозеф Дж. Варгас (Channel 9 Director)
Дублёры: Татьяна Шитова (Becky Fuller) (Becky Fuller), Владимир Антоник (Mike Pomeroy) (Mike Pomeroy), Ирина Муромцева (Colleen Peck) (Colleen Peck), Андрей Петров (Adam Bennett) (Adam Bennett), Игорь Тарадайкин (Jerry Barnes) (Jerry Barnes), Всеволод Кузнецов, Константин Карасик, Людмила Гнилова, Олег Форостенко, Юрий Брежнев, Дмитрий Курта, Владислав Завьялов (Lenny Bergman) (Lenny Bergman)

Описание: Когда неутомимого телепродюсера Бекки Фулер увольняют с программы местных новостей, ее карьера становится столь же безнадежной, как и ее личная жизнь. Устроившись в третьесортное утреннее шоу, Бекки решает реанимировать его, пригласив легендарного ведущего Майка Помероя. К сожалению, Майк отказывается рассказывать о моде, погоде и сплетничать о знаменитостях. Это делает его соведущая Колин Пек, бывшая королева красоты и героиня утренних программ, которая в восторге от возможности поделиться с миром свежими «новостями».
По мере того, как ведущие вступают в войну сначала за кадром, а потом и в эфире, в жизнь Бекки входит любовь к коллеге по цеху Адаму Беннету. И вот уже Бекки борется за свои отношения, репутацию, работу и, естественно, за судьбу шоу.


Изображение: 7.369 (6 968)
Изображение: 6.50 (10 436)

MPAA: Изображение - Детям до 13 лет просмотр не желателен

Доп. Информация

Бюджет: $40 000 000
Сборы в США: $31 011 732
Сборы в России: $3 148 093
Сборы в мире: $58 785 180
Мировая премьера: 10 ноября 2010
Изображение Релиз на DVD: 17 мая 2011, «Юниверсал Пикчерс Рус»

Свернуть


Качество: BDRip R5

Формат: Matroska
Видео: AVC; 1280x532 (2.40:1); 4987 Kbps; 23,976 fps; 0,305 bpp
Аудио №1: Russian; AC3; 448 Kbps; CBR; 6 ch
Аудио №2: English; AC3; 640 Kbps; CBR; 6 ch
Субтитры №1: Russian
Субтитры №2: Russian
Субтитры №3: English
Изображение

MediaInfo

General
Complete name : Morning.Glory.2010.D.BDRip.720p.mkv
Format : Matroska
File size : 4.65 GiB
Duration : 1h 47mn
Overall bit rate : 6 199 Kbps
Movie name : [Black Snow]
Encoded date : UTC 2011-05-18 15:58:23
Writing application : mkvmerge v3.4.0 ('Rapunzel') сборка от May 15 2010 09:38:20
Writing library : libebml v0.8.0 + libmatroska v0.9.0


Video
ID : 1
Format : AVC
Format/Info : Advanced Video Codec
Format profile : High@L4.1
Format settings, CABAC : Yes
Format settings, ReFrames : 11 frames
Codec ID : V_MPEG4/ISO/AVC
Duration : 1h 47mn
Bit rate : 5 119 Kbps
Width : 1 280 pixels
Height : 532 pixels
Display aspect ratio : 2.40:1
Frame rate : 23.976 fps
Color space : YUV
Chroma subsampling : 4:2:0
Bit depth : 8 bits
Scan type : Progressive
Bits/(Pixel*Frame) : 0.314
Stream size : 3.74 GiB (80%)
Title : Morning.Glory.2010.720p.BluRay.DD5.1.x264-EbP
Writing library : x264 core 114 r1913 5fd3dce
Encoding settings : cabac=1 / ref=11 / deblock=1:-3:-3 / analyse=0x3:0x133 / me=umh / subme=10 / psy=1 / psy_rd=0.95:0.00 / mixed_ref=1 / me_range=32 / chroma_me=1 / trellis=2 / 8x8dct=1 / cqm=0 / deadzone=21,11 / fast_pskip=0 / chroma_qp_offset=-2 / threads=6 / sliced_threads=0 / nr=0 / decimate=1 / interlaced=0 / constrained_intra=0 / bframes=8 / b_pyramid=2 / b_adapt=2 / b_bias=0 / direct=3 / weightb=1 / open_gop=0 / weightp=2 / keyint=250 / keyint_min=23 / scenecut=40 / intra_refresh=0 / rc_lookahead=60 / rc=2pass / mbtree=0 / bitrate=5119 / ratetol=1.0 / qcomp=0.60 / qpmin=10 / qpmax=51 / qpstep=4 / cplxblur=20.0 / qblur=0.5 / vbv_maxrate=50000 / vbv_bufsize=50000 / nal_hrd=none / ip_ratio=1.40 / pb_ratio=1.30 / aq=1:0.60
Language : English


Audio #1
ID : 2
Format : AC-3
Format/Info : Audio Coding 3
Mode extension : CM (complete main)
Codec ID : A_AC3
Duration : 1h 47mn
Bit rate mode : Constant
Bit rate : 448 Kbps
Channel(s) : 6 channels
Channel positions : Front: L C R, Side: L R, LFE
Sampling rate : 48.0 KHz
Bit depth : 16 bits
Compression mode : Lossy
Stream size : 344 MiB (7%)
Title : DUB R5
Language : Russian


Audio #2
ID : 3
Format : AC-3
Format/Info : Audio Coding 3
Mode extension : CM (complete main)
Codec ID : A_AC3
Duration : 1h 47mn
Bit rate mode : Constant
Bit rate : 640 Kbps
Channel(s) : 6 channels
Channel positions : Front: L C R, Side: L R, LFE
Sampling rate : 48.0 KHz
Bit depth : 16 bits
Compression mode : Lossy
Stream size : 492 MiB (10%)
Title : Original
Language : English


Text #1
ID : 4
Format : UTF-8
Codec ID : S_TEXT/UTF8
Codec ID/Info : UTF-8 Plain Text
Title : Russian [forced]
Language : Russian


Text #2
ID : 5
Format : UTF-8
Codec ID : S_TEXT/UTF8
Codec ID/Info : UTF-8 Plain Text
Title : Russian [full]
Language : Russian


Text #3
ID : 6
Format : UTF-8
Codec ID : S_TEXT/UTF8
Codec ID/Info : UTF-8 Plain Text
Title : English
Language : English


Menu
00:00:00.000 : en:00:00:00.000
00:06:58.793 : en:00:06:58.793
00:09:38.286 : en:00:09:38.286
00:15:20.086 : en:00:15:20.086
00:22:49.577 : en:00:22:49.577
00:26:19.620 : en:00:26:19.620
00:31:37.896 : en:00:31:37.896
00:39:08.680 : en:00:39:08.680
00:44:19.073 : en:00:44:19.073
00:49:39.977 : en:00:49:39.977
00:54:25.512 : en:00:54:25.512
01:00:35.632 : en:01:00:35.632
01:05:48.945 : en:01:05:48.945
01:13:32.617 : en:01:13:32.617
01:17:25.474 : en:01:17:25.474
01:21:15.788 : en:01:21:15.788
01:29:12.305 : en:01:29:12.305
01:34:38.131 : en:01:34:38.131
Свернуть

Скриншоты

Изображение
Изображение
Изображение
Изображение
Свернуть

_________________
Себе ты можешь не качать, но раздавать другим обязан!
Не в сети
Профиль  
 Добавлено: 2011-05-20 17:13 (спустя 1 день 19 часов)
Аватара пользователя
Стаж: 8 лет 3 месяца
Возраст: 43
Сообщений: 3290
Спасибок: 21012
Лайков: 3
типа АП :)
_________________
Изображение
Не в сети
Профиль  
Начать новую темуОтветить на тему  [ Сообщений: 2 ] 
Вы не можете начинать темы
Вы не можете отвечать на сообщения
Вы не можете редактировать свои сообщения
Вы не можете удалять свои сообщения