Правила форума

  • В этом разделе создание новых тем Запрещено.
  • Для создания новых тем пользуйтесь Корневым разделом DVD и HD фильмы.
Начать новую темуОтветить на тему  [ 1 сообщение ] 
Торрент файл
Размер: 7.88 GB • Зарегистрирован: 2 года 4 месяца • Статус: Проверено
Скачан: 84 раза • Желающих скачать: 0 • Поблагодарили: 18 раз
 Раздают: 1  |  0 KB/s  ]   Качают: 0  |  0 KB/s  ] 
Сообщения
 Добавлено: 2014-07-09 18:42
Руководитель релиз-группы
Аватара пользователя
Стаж: 7 лет 2 месяца
Возраст: 4
Сообщений: 5213
Спасибок: 19350
Лайков: 2312
Долгое падение / A Long Way Down

Изображение


Год выпуска: 2014
Страна: Великобритания, Германия
Жанр: Драма, комедия
Продолжительность: 01:36:27
Перевод: Профессиональный (дубляж) + Профессиональный (дубляж)

Режиссёр: Паскаль Шомель
В ролях: Пирс Броснан, Имоджен Путс, Аарон Пол, Тони Коллетт, Сэм Нил, Таппенс Мидлтон, Розамунд Пайк, Зара Уайт, Джо Коул, Эвелин Дуа
Описание: Четверо незнакомцев встречаются в канун Нового Года на крыше лондонского небоскреба. Каждый из них поднялся с одной целью - прыгнуть. Очередь в лучший мир заставляет их заключить пакт - дожить до Дня всех влюбленных и оторваться по полной.


Качество: BDRip [1080p]
Формат: MKV
Видео кодек: AVC
Аудио кодек: DTS
Видео: AVC,1920x804, 23.976fps,8 520 Kbit/s
Аудио #1: DTS,48000Hz, 6 каналов, 1509 kbit/s-Русский [Профессиональный (дубляж)]
Аудио #2: DTS,48000Hz, 6 каналов, 1509 kbit/s-Английский [Профессиональный (дубляж)]
Скриншоты
Изображение
Изображение
Изображение
Свернуть


Mediainfo:
General
Unique ID : 242035473773897407861880172089682449453 (0xB616562EFD6EB906AAC76980FF70542D)
Complete name : D:ФильмыДолгое падение.2014.BDRip.1080p_.mkv
Format : Matroska
Format version : Version 2
File size : 7.88 GiB
Duration : 1h 35mn
Overall bit rate : 11.8 Mbps
Encoded date : UTC 2014-07-09 03:00:52
Writing application : mkvmerge v7.0.0 ('Where We Going') 64bit built on Jun 9 2014 15:16:27
Writing library : libebml v1.3.0 + libmatroska v1.4.1
DURATION : 01:35:45.875000000
NUMBER_OF_FRAMES : 137901
NUMBER_OF_BYTES : 6286670213
_STATISTICS_WRITING_APP : mkvmerge v7.0.0 ('Where We Going') 64bit built on Jun 9 2014 15:16:27
_STATISTICS_WRITING_DATE_UTC : 2014-07-09 03:00:52
_STATISTICS_TAGS : BPS DURATION NUMBER_OF_FRAMES NUMBER_OF_BYTES

Video
ID : 1
Format : AVC
Format/Info : Advanced Video Codec
Format profile : High@L4.1
Format settings, CABAC : Yes
Format settings, ReFrames : 4 frames
Codec ID : V_MPEG4/ISO/AVC
Bit rate : 8 522 Kbps
Width : 1 920 pixels
Height : 804 pixels
Display aspect ratio : 2.40:1
Frame rate mode : Variable
Original frame rate : 24.000 fps
Color space : YUV
Chroma subsampling : 4:2:0
Bit depth : 8 bits
Scan type : Progressive
Writing library : x264 core 142 r2431+42 c69a006 tMod [8-bit@all X86_64]
Encoding settings : cabac=1 / ref=2 / deblock=1:0:0 / analyse=0x3:0x133 / me=hex / subme=2 / psy=1 / fade_compensate=0.00 / psy_rd=1.00:0.00 / mixed_ref=1 / me_range=16 / chroma_me=1 / trellis=2 / 8x8dct=1 / cqm=0 / deadzone=21,11 / fast_pskip=0 / chroma_qp_offset=0 / threads=12 / lookahead_threads=6 / sliced_threads=0 / nr=0 / decimate=1 / interlaced=0 / bluray_compat=0 / constrained_intra=0 / fgo=0 / bframes=2 / b_pyramid=2 / b_adapt=2 / b_bias=0 / direct=1 / weightb=1 / open_gop=0 / weightp=2 / keyint=240 / keyint_min=24 / scenecut=40 / intra_refresh=0 / rc=crf / mbtree=0 / crf=18.3000 / qcomp=0.80 / qpmin=0:0:0 / qpmax=69:69:69 / qpstep=4 / ip_ratio=1.40 / pb_ratio=1.30 / aq=2:1.00 / aq-sensitivity=10.00 / aq-factor=1.00:1.00:1.00 / aq2=0 / aq3=0
Default : Yes
Forced : No

Audio #1
ID : 2
Format : DTS
Format/Info : Digital Theater Systems
Mode : 16
Format settings, Endianness : Big
Codec ID : A_DTS
Duration : 1h 35mn
Bit rate mode : Constant
Bit rate : 1 509 Kbps
Channel(s) : 6 channels
Channel positions : Front: L C R, Side: L R, LFE
Sampling rate : 48.0 KHz
Bit depth : 16 bits
Compression mode : Lossy
Stream size : 1.01 GiB (13%)
Language : Russian
Default : Yes
Forced : No

Audio #2
ID : 3
Format : DTS
Format/Info : Digital Theater Systems
Mode : 16
Format settings, Endianness : Big
Codec ID : A_DTS
Duration : 1h 35mn
Bit rate mode : Constant
Bit rate : 1 509 Kbps
Channel(s) : 6 channels
Channel positions : Front: L C R, Side: L R, LFE
Sampling rate : 48.0 KHz
Bit depth : 16 bits
Compression mode : Lossy
Stream size : 1.01 GiB (13%)
Language : English
Default : No
Forced : No

Menu
00:00:00.000 : en:
00:07:41.083 : en:
00:14:39.750 : en:
00:19:53.500 : en:
00:24:31.458 : en:
00:29:57.708 : en:
00:35:07.458 : en:
00:42:15.333 : en:
00:48:41.500 : en:
00:56:29.500 : en:
01:03:04.250 : en:
01:07:04.666 : en:
01:13:43.750 : en:
01:20:32.625 : en:
01:26:01.625 : en:
01:30:44.208 : en:
Свернуть
 rotametr нравится это.
Не в сети
Профиль  
Начать новую темуОтветить на тему  [ 1 сообщение ] 
Вы не можете начинать темы
Вы не можете отвечать на сообщения
Вы не можете редактировать свои сообщения
Вы не можете удалять свои сообщения