Правила форума

  • В этом разделе создание новых тем Запрещено.
  • Для создания новых тем пользуйтесь Корневым разделом DVD и HD фильмы.
Начать новую темуОтветить на тему  [ Сообщений: 3 ] 
Торрент файл
Размер: 20.39 GB • Зарегистрирован: 2 года 2 месяца • Статус: Проверено
Скачан: 55 раз • Желающих скачать: 0 • Поблагодарили: 18 раз
 Раздают: 0  |  0 KB/s  ]   Качают: 0  |  0 KB/s  ] 
 Полного источника не было 3 месяца 7 дней 
Сообщения
 Добавлено: 2014-09-18 16:05
RG-ELEKTRO
Аватара пользователя
Стаж: 2 года 3 месяца
Сообщений: 7928
Спасибок: 53794
Лайков: 3304
Дом Хемингуэй / Dom Hemingway


Изображение


Страна: Великобритания / BBC Films, Isle of Man Film Ltd., Pinewood Studios Ltd., Recorded Picture Company (RPC)
Жанр: драма, комедия, криминал
Год выпуска: 2013
Продолжительность: 01:33:47
Перевод: Профессиональный (многоголосый закадровый) + авторский одноголосый (Есарев)
Cубтитры: русские (SDH), английские (SDH)
Оригинальная аудиодорожка: английский

Режиссер: Ричард Шепард / Richard Shepard

В ролях: Джуд Лоу, Ричард Э. Грант, Демиан Бишир, Эмилия Кларк, Лука Франзони, Ричард Грэхэм, Джордж Суини, Марк Уингетт, Дэвид Бокэм, Ник Раггетт...

Описание: Главный герой - виртуозный взломщик сейфов, отличающийся весёлым нравом и цинизмом, но при этом представляющий реальную угрозу. Проведя 12 лет в тюрьме и выйдя на свободу, он намерен востребовать должок, который причитается ему за то, что он держал язык за зубами.


Качество: BDRemux 1080p / DVD5 R5 от «Lizard Cinema Trade» + Dom Hemingway 2013 UK Blu-ray 1080p AVC DTS-HDMA5.1-sony188.mkv + Dom Hemingway.2013.BDRip.1080p.AVO.Esarev.mkv
Формат: MKV
Видео кодек: MPEG-4 AVC Video
Аудио кодек : AC3 / DTS / DTS-HD Master Audio
Видео: 1920x1080, MPEG-4 AVC Video 28075 kbps 1080p / 24,000 fps / 16:9 / High Profile 4.1
Аудио 1: Russian: 48 kHz/24-bit, АС3, 2/0 (L,R) ch, ~192.00 kbps avg |Многоголосый закадровый|
Аудио 2: Russian: 48 kHz/24-bit, DTS, 3/2 (L,C,R,l,r) + LFE ch, ~755.00 kbps avg |Авторский одноголосый (Есарев)|
Аудио 3: DTS-HD Master Audio English 2111 kbps 5.1 / 48 kHz / 2111 kbps / 24-bit (DTS Core: 5.1 / 48 kHz / 768 kbps / 24-bit)
Формат субтитров: SoftSub (srt)

Дополнительно: Фильм разбит на главы, как на оригинальном Blu-ray диске. Русские субтитры очищены от мата, а также поправлены орфография и синтаксис.



"MediaInfo"
Общее
Полное имя : Dom.Heminguey.2013.BDRemux.1080p.mkv
Формат : Matroska
Версия формата : Version 4 / Version 2
Размер файла : 20,4 Гбайт
Продолжительность : 1 ч. 33 м.
Режим общего битрейта : Переменный
Общий поток : 31,1 Мбит/сек
Дата кодирования : UTC 2014-09-16 16:44:14
Программа кодирования : mkvmerge v7.2.0 ('On Every Street') 64bit built on Sep 13 2014 15:52:10
Библиотека кодирования : libebml v1.3.0 + libmatroska v1.4.1
DURATION : 01:33:46.742000000
NUMBER_OF_FRAMES : 527510
NUMBER_OF_BYTES : 530675060
_STATISTICS_WRITING_APP : mkvmerge v7.2.0 ('On Every Street') 64bit built on Sep 13 2014 15:52:10
_STATISTICS_WRITING_DATE_UTC : 2014-09-16 16:44:14
_STATISTICS_TAGS : BPS DURATION NUMBER_OF_FRAMES NUMBER_OF_BYTES

Видео
Идентификатор : 1
Формат : AVC
Формат/Информация : Advanced Video Codec
Профиль формата : High@L4.1
Параметр CABAC формата : Да
Параметр ReFrames формата : 4 кадра
Идентификатор кодека : V_MPEG4/ISO/AVC
Продолжительность : 1 ч. 33 м.
Вид битрейта : Переменный
Максимальный битрейт : 35,0 Мбит/сек
Ширина : 1920 пикселей
Высота : 1080 пикселей
Соотношение сторон : 16:9
Режим частоты кадров : Постоянный
Частота кадров : 24,000 кадра/сек
Стандарт вещания : NTSC
Цветовое пространство : YUV
Субдискретизация насыщенности : 4:2:0
Битовая глубина : 8 бит
Тип развёртки : Прогрессивная
Default : Да
Forced : Нет
Основные цвета : BT.709
Характеристики трансфера : BT.709
Коэффициенты матрицы : BT.709

Аудио #1
Идентификатор : 2
Формат : AC-3
Формат/Информация : Audio Coding 3
Расширение режима : CM (complete main)
Параметр Endianness формата : Big
Идентификатор кодека : A_AC3
Продолжительность : 1 ч. 33 м.
Вид битрейта : Постоянный
Битрейт : 192 Кбит/сек
Каналы : 2 канала
Расположение каналов : Front: L R
Частота : 48,0 КГц
Битовая глубина : 16 бит
Метод сжатия : С потерями
Размер потока : 129 Мбайт (1%)
Язык : Russian
Default : Да
Forced : Нет

Аудио #2
Идентификатор : 3
Формат : DTS
Формат/Информация : Digital Theater Systems
Режим : 16
Параметр Endianness формата : Big
Идентификатор кодека : A_DTS
Продолжительность : 1 ч. 33 м.
Вид битрейта : Постоянный
Битрейт : 755 Кбит/сек
Каналы : 6 каналов
Расположение каналов : Front: L C R, Side: L R, LFE
Частота : 48,0 КГц
Битовая глубина : 24 бит
Метод сжатия : С потерями
Размер потока : 506 Мбайт (2%)
Заголовок : Esarev
Язык : Russian
Default : Нет
Forced : Нет

Аудио #3
Идентификатор : 4
Формат : DTS
Формат/Информация : Digital Theater Systems
Профиль формата : MA / Core
Режим : 16
Параметр Endianness формата : Big
Идентификатор кодека : A_DTS
Продолжительность : 1 ч. 33 м.
Вид битрейта : Переменный
Битрейт : Неизвестно / 768 Кбит/сек
Каналы : 6 каналов
Расположение каналов : Front: L C R, Side: L R, LFE
Частота : 48,0 КГц
Битовая глубина : 24 бит
Метод сжатия : Без потерь / Lossy
Язык : English
Default : Нет
Forced : Нет

Текст #1
Идентификатор : 5
Формат : UTF-8
Идентификатор кодека : S_TEXT/UTF8
Идентификатор кодека/Информация : UTF-8 Plain Text
Язык : Russian
Default : Нет
Forced : Нет

Текст #2
Идентификатор : 6
Формат : UTF-8
Идентификатор кодека : S_TEXT/UTF8
Идентификатор кодека/Информация : UTF-8 Plain Text
Язык : English
Default : Нет
Forced : Нет

Меню
00:00:00.000 : en:00:00:00.000
00:09:03.000 : en:00:09:03.000
00:18:11.083 : en:00:18:11.083
00:25:12.000 : en:00:25:12.000
00:33:03.917 : en:00:33:03.917
00:40:41.667 : en:00:40:41.667
00:49:16.000 : en:00:49:16.000
00:57:46.167 : en:00:57:46.167
01:05:01.500 : en:01:05:01.500
01:14:03.292 : en:01:14:03.292
01:18:30.250 : en:01:18:30.250
01:24:48.958 : en:01:24:48.958
Свернуть

"Скриншоты:"
Изображение
Изображение
Изображение


Свернуть

_________________
Не ищите меня в "ВКонтакте", в "Одноклассниках" меня нет - я на трекерах сижу!
Не в сети
Профиль  
 Добавлено: 2014-09-27 09:18 (спустя 8 дней)
Стаж: 7 лет 6 месяцев
Сообщений: 17
Обязательно посмотреть!Джуд Красавец!!!!
Не в сети
Профиль  
 Добавлено: 2014-09-27 09:42 (спустя 24 минуты)
RG-ELEKTRO
Аватара пользователя
Стаж: 2 года 3 месяца
Сообщений: 7928
Спасибок: 53794
Лайков: 3304
serofff84
согласна на все 100% :a_g_a:
_________________
Не ищите меня в "ВКонтакте", в "Одноклассниках" меня нет - я на трекерах сижу!
Не в сети
Профиль  
Начать новую темуОтветить на тему  [ Сообщений: 3 ] 
Вы не можете начинать темы
Вы не можете отвечать на сообщения
Вы не можете редактировать свои сообщения
Вы не можете удалять свои сообщения