Правила форума

  • В этом разделе создание новых тем Запрещено.
  • Для создания новых тем пользуйтесь Корневым разделом DVD и HD фильмы.
Начать новую темуОтветить на тему  [ Сообщений: 3 ] 
Торрент файл
Размер: 8.07 GB • Зарегистрирован: 1 год 1 месяц • Статус: Проверено
Скачан: 110 раз • Желающих скачать: 0 • Поблагодарили: 22 раза
 Раздают: 2  |  0 KB/s  ]   Качают: 0  |  0 KB/s  ] 
Сообщения
 Добавлено: 2015-10-31 07:17
DVD Release Group
Аватара пользователя
Стаж: 7 лет 1 месяц
Сообщений: 3565
Спасибок: 247518
Лайков: 1020
Дом конца времён

La casa del fin de los tiempos


Изображение


Год выпуска: 2013
Страна: Венесуэла
Жанр: Ужасы, триллер, драма, детектив
Продолжительность: 01:40:54
Перевод: Профессиональный (полное дублирование)
Субтитры: Английские
Режиссер: Алехандро Идальго
В ролях: Рудди Родригес, Гонсало Куберо, Росмель Бустаманте, Гильермо Гарсия, Гектор Меркадо, Александер да Сильва, Аманда Ки, Адриана Кальсадилья, Симона Чиринос, Мигель Флорес
Описание: Дульче, осужденная за убийство мужа 30 лет назад, выходит из тюрьмы и возвращается в проклятый Дом, где было совершено страшное преступление. Загадочное Нечто за все эти годы и не думало покидать Дом. Дульче предстоит разобраться, что же на самом деле кроется в стенах таинственного места, где по легенде скрываются духи, которые могут останавливать ход времени…
Изображение Изображение
Sample:
http://sendfile.su/1169628
Качество: BDRip 1080p
Формат: MKV
Видео кодек: H.264
Аудио кодек: AC3, DTS
Видео: 1920х1080 23.98fps 9520kbps
Аудио:
Аудио Rus: AC3 48kHz 2ch 192Kbps
Аудио Spa: DTS 48kHz 6ch 1510Kbps
"MediaInfo"
Формат : Matroska
Версия формата : Version 4 / Version 2
Размер файла : 8,07 Гбайт
Продолжительность : 1 ч. 40 м.
Общий поток : 11,4 Мбит/сек
Название фильма : Release Group CINEMANIA
Дата кодирования : UTC 2015-10-31 00:59:23
Программа кодирования : mkvmerge v7.3.0 ('Nouages') 32bit built on Oct 22 2014 18:44:01
Библиотека кодирования : libebml v1.3.0 + libmatroska v1.4.1
DURATION : 01:40:58.304000000
NUMBER_OF_FRAMES : 567966
NUMBER_OF_BYTES : 1142747592
_STATISTICS_WRITING_APP : mkvmerge v7.3.0 ('Nouages') 32bit built on Oct 22 2014 18:44:01
_STATISTICS_WRITING_DATE_UTC : 2015-10-31 00:59:23
_STATISTICS_TAGS : BPS DURATION NUMBER_OF_FRAMES NUMBER_OF_BYTES

Видео
Идентификатор : 1
Формат : AVC
Формат/Информация : Advanced Video Codec
Профиль формата : High@L4.1
Параметр CABAC формата : Да
Параметр ReFrames формата : 4 кадра
Идентификатор кодека : V_MPEG4/ISO/AVC
Продолжительность : 1 ч. 40 м.
Битрейт : 9520 Кбит/сек
Ширина : 1920 пикселей
Высота : 1080 пикселей
Соотношение сторон : 16:9
Режим частоты кадров : Постоянный
Частота кадров : 23,976 кадра/сек
Цветовое пространство : YUV
Субдискретизация насыщенности : 4:2:0
Битовая глубина : 8 бит
Тип развёртки : Прогрессивная
Бит/(Пиксели*Кадры) : 0.191
Размер потока : 6,71 Гбайт (83%)
Заголовок : Release Group CINEMANIA
Язык : English
Default : Да
Forced : Нет
DURATION : 01:40:58.303000000
NUMBER_OF_FRAMES : 145254
NUMBER_OF_BYTES : 7380072452
_STATISTICS_WRITING_APP : mkvmerge v7.3.0 ('Nouages') 32bit built on Oct 22 2014 18:44:01
_STATISTICS_WRITING_DATE_UTC : 2015-10-31 00:59:23
_STATISTICS_TAGS : BPS DURATION NUMBER_OF_FRAMES NUMBER_OF_BYTES

Аудио #1
Идентификатор : 3
Формат : AC-3
Формат/Информация : Audio Coding 3
Расширение режима : CM (complete main)
Параметр Endianness формата : Big
Идентификатор кодека : A_AC3
Продолжительность : 1 ч. 40 м.
Вид битрейта : Постоянный
Битрейт : 192 Кбит/сек
Каналы : 2 канала
Расположение каналов : Front: L R
Частота : 48,0 КГц
Битовая глубина : 16 бит
Метод сжатия : С потерями
Размер потока : 139 Мбайт (2%)
Язык : Russian
Default : Да
Forced : Нет

Аудио #2
Идентификатор : 4
Формат : DTS
Формат/Информация : Digital Theater Systems
Режим : 16
Параметр Endianness формата : Big
Идентификатор кодека : A_DTS
Продолжительность : 1 ч. 40 м.
Вид битрейта : Постоянный
Битрейт : 1509 Кбит/сек
Каналы : 6 каналов
Расположение каналов : Front: L C R, Side: L R, LFE
Частота : 48,0 КГц
Битовая глубина : 24 бит
Метод сжатия : С потерями
Размер потока : 1,06 Гбайт (13%)
Язык : Spanish
Default : Нет
Forced : Нет

Текст
Идентификатор : 2
Формат : UTF-8
Идентификатор кодека : S_TEXT/UTF8
Идентификатор кодека/Информация : UTF-8 Plain Text
Язык : English
Default : Нет
Forced : Нет

Меню
00:00:00.000 : en:00:00:00.000
00:10:51.776 : en:00:10:51.776
00:23:40.002 : en:00:23:40.002
00:37:03.763 : en:00:37:03.763
00:48:39.125 : en:00:48:39.125
01:03:32.767 : en:01:03:32.767
01:14:57.785 : en:01:14:57.785
01:29:37.497 : en:01:29:37.497
Свернуть

"Скриншоты"
Изображение
Изображение
Изображение
Свернуть
 sanmitsu нравится это.
Не в сети
Профиль  
 Добавлено: 2015-11-03 02:14 (спустя 2 дня 18 часов)
Аватара пользователя
Стаж: 9 лет
Сообщений: 160
Спасибок: 2793
Хороший фильм
В сети
Профиль  
 Добавлено: 2015-11-04 02:05 (спустя 23 часа)
Аватара пользователя
Стаж: 6 лет 9 месяцев
Возраст: 30
Сообщений: 90
Лайков: 6
Очень атмосферный фильм,сюжет очень загадочный и в конце классная развязка...
Не в сети
Профиль  
Начать новую темуОтветить на тему  [ Сообщений: 3 ] 
Вы не можете начинать темы
Вы не можете отвечать на сообщения
Вы не можете редактировать свои сообщения
Вы не можете удалять свои сообщения