Правила форума

  • В этом разделе создание новых тем Запрещено.
  • Для создания новых тем пользуйтесь Корневым разделом DVD и HD фильмы.
Начать новую темуОтветить на тему  [ Сообщений: 7 ] 
Торрент файл
Размер: 6.98 GB • Зарегистрирован: 3 года 7 месяцев • Статус: Проверено
Скачан: 253 раза • Желающих скачать: 0 • Поблагодарили: 57 раз
 Раздают: 0  |  0 KB/s  ]   Качают: 0  |  0 KB/s  ] 
 Полного источника не было 1 год 11 месяцев 
Сообщения
 Добавлено: 2013-04-25 15:51
Аватара пользователя
Стаж: 9 лет 1 месяц
Сообщений: 8047
Спасибок: 122285
Лайков: 1194
Дом с паранормальными явлениями / A Haunted House

«Здесь должен быть слоган»

Изображение


Год выпуска: 2013
Страна: Изображение США
Жанр: ужасы, комедия
Продолжительность: 01:26:25
Субтитры: Русские, английские
Перевод: Профессиональный (полное дублирование) [Лицензия]


Режиссёр: Майкл Тиддес
Сценарист: Марлон Уайанс, Рик Альварез
Продюсер: Рик Альварез, Марлон Уайанс, Лиза Блум
Оператор: Стив Гэйнер

В ролях: Марлон Уайанс, Эссенс Эткинс, Седрик «Развлекатель», Ник Свардсон, Дэвид Кокнер, Дейв Шеридан, Марлен Форте, Аланна Юбак, Эндрю Дэйли, Эффион Крокетт

Описание: Малкольм и Киша переезжают в дом своей мечты, но скоро понимают, что там уже проживает демон. Когда Киша становится одержимой, Малкольм обращается за помощью к священнику, экстрасенсу и команде охотников за привидениями.

Изображение Изображение

Релиз группы: Изображение Раздача группы: Изображение

Качество: BDRip (1080p)
Формат: Matroska
Видео: MPEG-4 AVC, 9312 Кбит/с, 1920x1040
Аудио №1: Русский (DTS, 48,0 КГц, 6 ch, 768 Кбит/c)
Аудио №2: Английский (DTS, 48,0 КГц, 6 ch, 1510 Кбит/c)

MediaInfo
Общее
Уникальный идентификатор : 229464306919397923393771913011179160192 (0xACA137CDF523856494E33998E53A0280)
Полное имя : C:\Фильмы\Dom.s.paranormalnymi.javlenijami.2013.D.BDRip.1080p.R.G.Daredevil.mkv
Формат : Matroska
Версия формата : Version 2
Размер файла : 6,98 Гбайт
Продолжительность : 1 ч. 26 м.
Общий поток : 11,6 Мбит/сек
Название фильма : IRONCLUB
Дата кодирования : UTC 2013-04-25 10:57:17
Программа кодирования : mkvmerge v5.2.0 ('I can't explain') built on Dec 18 2011 18:12:03
Библиотека кодирования : libebml v1.2.3 + libmatroska v1.3.0

Видео
Идентификатор : 1
Формат : AVC
Формат/Информация : Advanced Video Codec
Профиль формата : High@L4.1
Параметр CABAC формата : Да
Параметр ReFrames формата : 4 кадра
Идентификатор кодека : V_MPEG4/ISO/AVC
Продолжительность : 1 ч. 26 м.
Битрейт : 9312 Кбит/сек
Ширина : 1920 пикселей
Высота : 1040 пикселей
Соотношение сторон : 1,85:1
Режим частоты кадров : Постоянный
Частота кадров : 23,976 кадра/сек
Цветовое пространство : YUV
Субдискретизация насыщенности : 4:2:0
Битовая глубина : 8 бит
Тип развёртки : Прогрессивная
Бит/(Пиксели*Кадры) : 0.195
Размер потока : 5,48 Гбайт (78%)
Заголовок : Promised.Land.2012.BluRay.1080p.DTS.x264-CHD
Библиотека кодирования : x264 core 130 r2273 b3065e6
Настройки программы : cabac=1 / ref=4 / deblock=1:-3:-3 / analyse=0x3:0x113 / me=umh / subme=10 / psy=1 / psy_rd=1.05:0.10 / mixed_ref=1 / me_range=48 / chroma_me=1 / trellis=2 / 8x8dct=1 / cqm=0 / deadzone=21,11 / fast_pskip=0 / chroma_qp_offset=-2 / threads=12 / lookahead_threads=1 / sliced_threads=0 / nr=0 / decimate=1 / interlaced=0 / bluray_compat=0 / constrained_intra=0 / bframes=6 / b_pyramid=2 / b_adapt=2 / b_bias=0 / direct=3 / weightb=1 / open_gop=0 / weightp=2 / keyint=250 / keyint_min=23 / scenecut=40 / intra_refresh=0 / rc_lookahead=40 / rc=2pass / mbtree=0 / bitrate=9312 / ratetol=2.0 / qcomp=0.70 / qpmin=0 / qpmax=69 / qpstep=4 / cplxblur=20.0 / qblur=0.5 / vbv_maxrate=40000 / vbv_bufsize=30000 / nal_hrd=none / ip_ratio=1.40 / pb_ratio=1.30 / aq=2:1.00
Язык : English
Default : Да
Forced : Да

Аудио #1
Идентификатор : 2
Формат : DTS
Формат/Информация : Digital Theater Systems
Режим : 16
Параметр Endianness формата : Big
Идентификатор кодека : A_DTS
Продолжительность : 1 ч. 26 м.
Вид битрейта : Постоянный
Битрейт : 755 Кбит/сек
Каналы : 6 каналов
Расположение каналов : Front: L C R, Side: L R, LFE
Частота : 48,0 КГц
Битовая глубина : 24 бит
Метод сжатия : С потерями
Размер потока : 466 Мбайт (7%)
Заголовок : DTS 5.1 @ 768 kbps - Dub, R5
Язык : Russian
Default : Да
Forced : Да

Аудио #2
Идентификатор : 3
Формат : DTS
Формат/Информация : Digital Theater Systems
Режим : 16
Параметр Endianness формата : Big
Идентификатор кодека : A_DTS
Продолжительность : 1 ч. 26 м.
Вид битрейта : Постоянный
Битрейт : 1509 Кбит/сек
Каналы : 6 каналов
Расположение каналов : Front: L C R, Side: L R, LFE
Частота : 48,0 КГц
Битовая глубина : 24 бит
Метод сжатия : С потерями
Размер потока : 933 Мбайт (13%)
Заголовок : DTS 5.1 @ 1536 kbps
Язык : English
Default : Нет
Forced : Нет

Текст #1
Идентификатор : 4
Формат : UTF-8
Идентификатор кодека : S_TEXT/UTF8
Идентификатор кодека/Информация : UTF-8 Plain Text
Заголовок : R5
Язык : Russian
Default : Нет
Forced : Нет

Текст #2
Идентификатор : 5
Формат : UTF-8
Идентификатор кодека : S_TEXT/UTF8
Идентификатор кодека/Информация : UTF-8 Plain Text
Язык : English
Default : Нет
Forced : Нет
Свернуть
Знаете ли вы, что...
Дата выхода фильма (11 января 2013 года) изначально совпадала с фильмом «Очень страшное кино 5» (2013), пока дату последнего не перенесли на апрель 2013 года. Оба этих фильма являются пародией на «Паранормальное явление» (2007). Марлон Уайанс, актер и сценарист фильма «Дом с паранормальными явлениями» (2013), также является одним из создателей франшизы «Очень страшного кино».
Свернуть
Скриншоты
Изображение
Изображение
Изображение
Изображение
Свернуть
Не в сети
Профиль  
 Добавлено: 2013-04-26 12:55 (спустя 21 час)
Аватара пользователя
Стаж: 8 лет
Сообщений: 1391
Спасибок: 39
Лайков: 64
krazz
:co_ol:
Не в сети
Профиль  
 Добавлено: 2013-04-26 13:56 (спустя 1 час 1 минута)
Стаж: 5 лет 3 месяца
Сообщений: 150
Лайков: 2
Не оправдал ожиданий((((
Не в сети
Профиль  
 Добавлено: 2013-04-26 15:50 (спустя 1 час 53 минуты)
Аватара пользователя
Стаж: 8 лет
Сообщений: 1391
Спасибок: 39
Лайков: 64
Да, полфильма ржака, дальше отстой, на 1 раз, krazz отличное качество :co_ol:
Не в сети
Профиль  
 Добавлено: 2013-04-26 17:51 (спустя 2 часа 1 минута)
Аватара пользователя
Стаж: 6 лет 1 месяц
Сообщений: 2
кто так учил скрины делать :ps_ih:
Не в сети
Профиль  
 Добавлено: 2013-04-27 17:51 (спустя 1 день)
Аватара пользователя
Стаж: 4 года 4 месяца
Возраст: 33
Сообщений: 178
Лайков: 3
токого шлака я не видел.... :ps_ih: :st_op: :st_op: :st_op: не кому не рекомендую тратить время на это х....ю. :ne_ne: :ne_ne: :ne_ne: :ne_ne: :)-(:

Добавлено спустя 46 секунд:
даже с раздачи сниму :ne_ne:
Не в сети
Профиль  
 Добавлено: 2013-06-05 23:58 (спустя 1 месяц 8 дней)
Аватара пользователя
Стаж: 8 лет
Сообщений: 1391
Спасибок: 39
Лайков: 64
mixghjjghjj
какого художника потеряли :za_da_va_la:
Не в сети
Профиль  
Начать новую темуОтветить на тему  [ Сообщений: 7 ] 
Вы не можете начинать темы
Вы не можете отвечать на сообщения
Вы не можете редактировать свои сообщения
Вы не можете удалять свои сообщения