Правила форума

  • В этом разделе создание новых тем Запрещено.
  • Для создания новых тем пользуйтесь Корневым разделом DVD и HD фильмы.
Начать новую темуОтветить на тему  [ 1 сообщение ] 
Торрент файл
Размер: 4.6 GB • Зарегистрирован: 5 лет 1 месяц • Статус: Проверено
Скачан: 165 раз • Желающих скачать: 0 • Поблагодарили: 38 раз
 Раздают: 0  |  0 KB/s  ]   Качают: 0  |  0 KB/s  ] 
 Полного источника не было 1 час 33 минуты 
Сообщения
 Добавлено: 2011-10-15 09:45
Top-releaser
Стаж: 7 лет 3 месяца
Возраст: 33
Сообщений: 409
Спасибок: 6400
Лайков: 6
Дом у озера
The Lake House
«Можно ли полюбить с первого слова?»

Изображение
Год выпуска: 2006
Страна: США, Австралия
Жанр: фэнтези, драма, мелодрама
Продолжительность: 01:38:33
Перевод: Профессиональный (дублирование) + Профессиональный (двухголосый) [SuperBit] + Авторский (В.Королёв) + Профессиональный (многоголосый) [украинский] + Оригинал

Режиссер: Алехандро Агрести (Alejandro Agresti)
Сценарий: Дэвид Обёрн / David Auburn, Юн-Йонг Ким / Eun-Jeong Kim, Джи-На Ео / Ji-na Yeo
Продюсер: Даг Дэвисон / Doug Davison, Рой Ли / Roy Lee, Брюс Берман / Bruce Berman, Дэна Голдберг / Dana Goldberg, Сонни Маллхи / Sonny Mallhi
Оператор: Алар Кивило / Alar Kivilo
Композитор: Рейчел Портмен / Rachel Portman, Пауль Михаэль ван Брюгге / Paul Michael van Brugge

В ролях: Киану Ривз (Alex Wyler), Сандра Буллок (Kate Forster), Кристофер Пламмер (Simon Wyler), Эбон Мосс-Бакрак (Henry Wyler), Виллеке ван Аммельрой (Kate's Mother), Дилан Уолш (Morgan), Шохре Агдашлу (Anna), Линн Коллинз (Mona), Майк Бакарелла (Mulhern), Кевин Бреннан (Waiter), Фрэнк Каети (Cove Patron), Алайя Карр (Girl Patient)
Дублёры: Всеволод Кузнецов (Alex Wyler), Ольга Зубкова (Kate Forster), Рудольф Панков (Simon Wyler), Александр Рахленко (Morgan), Лиза Мартиросова

Описание: Зима 2006 года. Ощутив необходимость изменить свою жизнь, доктор Кейт Форестер покидает свой необычный дом у озера в пригороде Иллинойса и устраивается на работу в чикагскую больницу. Единственное, о чем жалеет Кейт, так это о своем красивом доме с огромными окнами, который дарил ей душевное спокойствие. По дороге в город Кейт оставляет в почтовом ящике письмо, которое должен получить новый обитатель дома. Когда же в него вселяется талантливый, но разочаровавшийся в жизни архитектор Алекс Уайлер, он видит этот дом совсем не таким, каким описала его в своем письме Кейт. Для Алекса это жилище имеет особое значение, поскольку оно было построено его отцом, знаменитым архитектором, который ради карьеры оставил свою семью. В итоге Алекс решает придать дому его первоначальный вид. Однажды странный случай заставляет Алекса написать ответное письмо Кейт; в процессе их переписки выясняется, что он живет в 2004 году, а она - в 2006-м. И лишь загадочный почтовый ящик служит неким соединяющим их мостиком. В письмах они делятся друг с другом самым сокровенным, и постепенно между ними возникает заочный любовный роман. Испытывая неодолимое желание встретиться, Кейт и Алекс идут на все, чтобы добиться невозможного, рискуя при этом навсегда потерять друг друга.


Рейтинг
Kinopoisk.RU: (7.870)
Imdb.com: 6.80 (44 419)
Mpaa: Изображение


Качество: BDRip 720p
Формат: MKV
Видео: AVC; 1280x532 (2.40:1); 4180 Kbps; 23,976 fps; 0,256 bpp
Аудио 1: Rus; 48 kHz; AC3; 448 Kbps; CBR; 6 ch - Dub
Аудио 2: Rus; 48 kHz; AC3; 448 Kbps; CBR; 6 ch - DVO [SuperBit]
Аудио 3: Rus; 48 kHz; AC3; 640 Kbps; CBR; 6 ch - AVO [В.Королёв]
Аудио 4: Ukr; 48 kHz; AC3; 192 Kbps; CBR; 2 ch - MVO [Ukr]
Аудио 5: Eng; 48 kHz; AC3; 640 Kbps; CBR; 6 ch - Eng
Субтитры: Russian (x3), English, English (SDH)

Релиз: Изображение
"Знаете ли Вы, что..."
  • Первоначально на роль главного героя планировался Джон Кьюсак.
  • Рабочим названием фильма долгое время оставалось «Il Mare». В фильме - это итальянское слово, означающее «море»; используется для названия ресторана, где Алекс назначает встречу Кэйт через два года. Кроме того - это название корейского фильма-оригинала.
  • Героиня Буллок дважды смотрит один и тот же фильм - «Дурная слава» Альфреда Хичкока с Ингрид Бергман и Кэри Грантом.
  • В момент случайной встречи героев в 2004 году, Алекс и Кэйт танцуют под песню Пола Маккартни This Never Happened Before, что по сути является анахронизмом: песня была записана Маккартни только в 2005 году.
  • Фильм вошел в историю как первая картина, вышедшая одновременно в трех цифровых форматах: DVD, HD-DVD и BluRay.
Свернуть
Доп.Информация
Цитата
Сохранены оригинальные чаптеры как на Blu-ray.
DTS на DVD от Superbit "дутый", потому AC3.
Дорожка №3 получена наложением чистого голоса на центр декодированного АС3.
Свернуть
Mediainfo
General
Unique ID : 218157200628784613851445463951070615160 (0xA41F8C6C4BCBCFA5B13D62082A5A5678)
Complete name : Дом у озера_2006_BDRip 720p.mkv
Format : Matroska
Format version : Version 2
File size : 4.60 GiB
Duration : 1h 38mn
Overall bit rate : 6 682 Kbps
Movie name : The Lake House (2006) - Release for HDCLUB
Encoded date : UTC 2011-10-14 09:26:46
Writing application : mkvmerge v3.4.0 ('Rapunzel') built on May 15 2010 09:38:20
Writing library : libebml v0.8.0 + libmatroska v0.9.0
Video #1
ID : 1
Format : AVC
Format/Info : Advanced Video Codec
Format profile : High@L4.1
Format settings, CABAC : Yes
Format settings, ReFrames : 11 frames
Codec ID : V_MPEG4/ISO/AVC
Duration : 1h 38mn
Bit rate : 4 181 Kbps
Width : 1 280 pixels
Height : 532 pixels
Display aspect ratio : 2.40:1
Frame rate : 23.976 fps
Color space : YUV
Chroma subsampling : 4:2:0
Bit depth : 8 bits
Scan type : Progressive
Bits/(Pixel*Frame) : 0.256
Stream size : 2.88 GiB (63%)
Title : Release for HDCLUB
Writing library : x264 core 116 r2074kMod 2641b9e
Encoding settings : cabac=1 / ref=11 / deblock=1:-3:-3 / analyse=0x3:0x113 / me=umh / subme=10 / psy=1 / fade_compensate=0.00 / psy_rd=1.00:0.00 / mixed_ref=1 / me_range=32 / chroma_me=1 / trellis=2 / 8x8dct=1 / cqm=0 / deadzone=21,11 / fast_pskip=0 / chroma_qp_offset=-2 / threads=6 / sliced_threads=0 / nr=0 / decimate=0 / interlaced=0 / bluray_compat=0 / constrained_intra=0 / bframes=10 / b_pyramid=2 / b_adapt=2 / b_bias=0 / direct=3 / weightb=1 / open_gop=0 / weightp=2 / keyint=240 / keyint_min=24 / scenecut=40 / intra_refresh=0 / rc=crf / mbtree=0 / crf=17.0000 / qcomp=0.60 / qpmin=0 / qpmax=69 / qpstep=4 / ip_ratio=1.40 / pb_ratio=1.30 / aq=1:0.80
Language : English
Audio #2
ID : 2
Format : AC-3
Format/Info : Audio Coding 3
Mode extension : CM (complete main)
Codec ID : A_AC3
Duration : 1h 38mn
Bit rate mode : Constant
Bit rate : 448 Kbps
Channel(s) : 6 channels
Channel positions : Front: L C R, Side: L R, LFE
Sampling rate : 48.0 KHz
Bit depth : 16 bits
Compression mode : Lossy
Stream size : 316 MiB (7%)
Title : AC3 5.1ch 448 kbps - Дубляж
Language : Russian
Audio #3
ID : 3
Format : AC-3
Format/Info : Audio Coding 3
Mode extension : CM (complete main)
Codec ID : A_AC3
Duration : 1h 38mn
Bit rate mode : Constant
Bit rate : 448 Kbps
Channel(s) : 6 channels
Channel positions : Front: L C R, Side: L R, LFE
Sampling rate : 48.0 KHz
Bit depth : 16 bits
Compression mode : Lossy
Stream size : 316 MiB (7%)
Title : AC3 5.1ch 448 kbps - Двухголосый закадровый, Superbit
Language : Russian
Audio #4
ID : 4
Format : AC-3
Format/Info : Audio Coding 3
Mode extension : CM (complete main)
Codec ID : A_AC3
Duration : 1h 38mn
Bit rate mode : Constant
Bit rate : 640 Kbps
Channel(s) : 6 channels
Channel positions : Front: L C R, Side: L R, LFE
Sampling rate : 48.0 KHz
Bit depth : 16 bits
Compression mode : Lossy
Stream size : 451 MiB (10%)
Title : AC3 5.1ch 640 kbps - Одноголосый закадровый, В.Королёв
Language : Russian
Audio #5
ID : 5
Format : AC-3
Format/Info : Audio Coding 3
Mode extension : CM (complete main)
Codec ID : A_AC3
Duration : 1h 38mn
Bit rate mode : Constant
Bit rate : 192 Kbps
Channel(s) : 2 channels
Channel positions : Front: L R
Sampling rate : 48.0 KHz
Bit depth : 16 bits
Compression mode : Lossy
Stream size : 135 MiB (3%)
Title : AC3 2.0ch 192 kbps - Многоголосый закадровый
Language : Ukrainian
Audio #6
ID : 6
Format : AC-3
Format/Info : Audio Coding 3
Mode extension : CM (complete main)
Codec ID : A_AC3
Duration : 1h 38mn
Bit rate mode : Constant
Bit rate : 640 Kbps
Channel(s) : 6 channels
Channel positions : Front: L C R, Side: L R, LFE
Sampling rate : 48.0 KHz
Bit depth : 16 bits
Compression mode : Lossy
Stream size : 451 MiB (10%)
Title : AC3 5.1ch 640 kbps
Language : English
Text #7
ID : 7
Format : UTF-8
Codec ID : S_TEXT/UTF8
Codec ID/Info : UTF-8 Plain Text
Language : Russian
Text #8
ID : 8
Format : UTF-8
Codec ID : S_TEXT/UTF8
Codec ID/Info : UTF-8 Plain Text
Language : Russian
Text #9
ID : 9
Format : UTF-8
Codec ID : S_TEXT/UTF8
Codec ID/Info : UTF-8 Plain Text
Title : Вита Алая
Language : Russian
Text #10
ID : 10
Format : UTF-8
Codec ID : S_TEXT/UTF8
Codec ID/Info : UTF-8 Plain Text
Language : English
Text #11
ID : 11
Format : UTF-8
Codec ID : S_TEXT/UTF8
Codec ID/Info : UTF-8 Plain Text
Title : SDH
Language : English
Menu
00:00:00.000 : en:00:00:00.000
00:03:35.381 : en:00:03:35.381
00:07:38.291 : en:00:07:38.291
00:13:18.130 : en:00:13:18.130
00:17:17.202 : en:00:17:17.202
00:23:39.417 : en:00:23:39.417
00:26:58.450 : en:00:26:58.450
00:32:44.629 : en:00:32:44.629
00:36:40.364 : en:00:36:40.364
00:40:25.422 : en:00:40:25.422
00:45:45.742 : en:00:45:45.742
00:50:27.858 : en:00:50:27.858
00:59:24.727 : en:00:59:24.727
01:03:21.297 : en:01:03:21.297
01:09:23.993 : en:01:09:23.993
01:13:14.890 : en:01:13:14.890
01:15:48.543 : en:01:15:48.543
01:20:21.483 : en:01:20:21.483
01:24:50.752 : en:01:24:50.752
01:28:11.119 : en:01:28:11.119
01:35:03.531 : en:01:35:03.531

Свернуть
Скриншоты
Изображение

Изображение

Изображение
Свернуть
Не в сети
Профиль  
Начать новую темуОтветить на тему  [ 1 сообщение ] 
Вы не можете начинать темы
Вы не можете отвечать на сообщения
Вы не можете редактировать свои сообщения
Вы не можете удалять свои сообщения