Правила форума

  • В этом разделе создание новых тем Запрещено.
  • Для создания новых тем пользуйтесь Корневым разделом DVD и HD фильмы.
Начать новую темуОтветить на тему  [ 1 сообщение ] 
Торрент файл
Размер: 13.21 GB • Зарегистрирован: 3 года 8 месяцев • Статус: Проверено
Скачан: 76 раз • Желающих скачать: 0 • Поблагодарили: 22 раза
 Раздают: 0  |  0 KB/s  ]   Качают: 0  |  0 KB/s  ] 
 Полного источника не было 2 года 1 месяц 
Сообщения
 Добавлено: 2013-03-22 00:11
Аватара пользователя
Стаж: 9 лет 1 месяц
Сообщений: 7977
Спасибок: 122205
Лайков: 1191
Дом в конце улицы / House at the End of the Street

«Страх живёт по соседству»

Изображение


Год выпуска: 2012
Страна: Изображение США Изображение Канада
Жанр: ужасы, триллер
Продолжительность: 01:41:46
Субтитры: Русские, английские, испанские
Перевод: Профессиональный (полное дублирование) [Лицензия]


Режиссёр: Марк Тондерай
Сценарист: Дэвид Лука, Джонатан Мостоу
Продюсер: Питер Блок, Хэл Либерман, Аарон Райдер
Оператор: Мирослав Бажак
Композитор: Тео Грин

В ролях: Дженнифер Лоуренс, Макс Тириот, Элизабет Шу, Джил Беллоуз, Нолан Фанк, Ева Линк, Александра МакДональд, Джордан Хэйес, Криста Бриджес, Джеймс Томас

Описание: Переехав жить в небольшой провинциальный город, Сара и ее дочь еще не догадываются, что вскоре окажутся в эпицентре очень ужасной истории. Когда окажется, что вблизи живет серийный убийца…

Изображение Изображение

Раздача группы: Изображение

Качество: BDRip (1080p)
Формат: Matroska
Видео: MPEG-4 AVC, 14.8 Мбит/с, 1920x800
Аудио №1: Русский (AC3, 48,0 КГц, 6 ch, 448 Кбит/c)
Аудио №2: Русский (DTS, 48,0 КГц, 6 ch, 1509 Кбит/c)
Аудио №3: Английский (DTS, 48,0 КГц, 6 ch, 1509 Кбит/c)
Примечание: Отсутствует около 1 минуты перевода

MediaInfo
Общее
Уникальный идентификатор : 215931591143904238191847065609671679679 (0xA272E9674A1CA2338346746BDA4A1EBF)
Полное имя : C:\Фильмы\Dom.v.konce.ulicy.2012.D.BDRip.1080p.R.G.Daredevil.mkv
Формат : Matroska
Версия формата : Version 2
Размер файла : 13,2 Гбайт
Продолжительность : 1 ч. 41 м.
Общий поток : 18,6 Мбит/сек
Название фильма : IRONCLUB
Дата кодирования : UTC 2013-03-21 21:17:48
Программа кодирования : mkvmerge v5.7.0 ('The Whirlwind') built on Jul 29 2012 15:12:35
Библиотека кодирования : libebml v1.2.3 + libmatroska v1.3.0

Видео
Идентификатор : 1
Формат : AVC
Формат/Информация : Advanced Video Codec
Профиль формата : High@L4.1
Параметр CABAC формата : Да
Параметр ReFrames формата : 5 кадров
Идентификатор кодека : V_MPEG4/ISO/AVC
Продолжительность : 1 ч. 41 м.
Битрейт : 14,8 Мбит/сек
Ширина : 1920 пикселей
Высота : 800 пикселей
Соотношение сторон : 2,40:1
Режим частоты кадров : Постоянный
Частота кадров : 23,976 кадра/сек
Цветовое пространство : YUV
Субдискретизация насыщенности : 4:2:0
Битовая глубина : 8 бит
Тип развёртки : Прогрессивная
Бит/(Пиксели*Кадры) : 0.401
Размер потока : 10,5 Гбайт (79%)
Заголовок : House.At.The.End.Of.The.Street.2012.1080p.BluRay.DTS.x264-DON
Библиотека кодирования : x264 core 129 r2230kMod 1cffe9f
Настройки программы : cabac=1 / ref=5 / deblock=1:-3:-3 / analyse=0x3:0x113 / me=umh / subme=9 / psy=1 / fade_compensate=0.00 / psy_rd=1.15:0.00 / mixed_ref=1 / me_range=16 / chroma_me=1 / trellis=2 / 8x8dct=1 / cqm=0 / deadzone=21,11 / fast_pskip=0 / chroma_qp_offset=-2 / threads=6 / lookahead_threads=1 / sliced_threads=0 / nr=0 / decimate=0 / interlaced=0 / bluray_compat=0 / constrained_intra=0 / bframes=8 / b_pyramid=2 / b_adapt=2 / b_bias=0 / direct=3 / weightb=1 / open_gop=0 / weightp=2 / keyint=250 / keyint_min=23 / scenecut=40 / intra_refresh=0 / rc_lookahead=40 / rc=crf / mbtree=1 / crf=18.0000 / qcomp=0.75 / qpmin=0 / qpmax=69 / qpstep=4 / ip_ratio=1.30 / aq=1:0.80
Язык : English
Default : Да
Forced : Да

Аудио #1
Идентификатор : 2
Формат : AC-3
Формат/Информация : Audio Coding 3
Расширение режима : CM (complete main)
Параметр Endianness формата : Big
Идентификатор кодека : A_AC3
Продолжительность : 1 ч. 41 м.
Вид битрейта : Постоянный
Битрейт : 448 Кбит/сек
Каналы : 6 каналов
Расположение каналов : Front: L C R, Side: L R, LFE
Частота : 48,0 КГц
Битовая глубина : 16 бит
Метод сжатия : С потерями
Размер потока : 326 Мбайт (2%)
Заголовок : Дубляж - Лицензия
Язык : Russian
Default : Да
Forced : Да

Аудио #2
Идентификатор : 3
Формат : DTS
Формат/Информация : Digital Theater Systems
Режим : 16
Параметр Endianness формата : Big
Идентификатор кодека : A_DTS
Продолжительность : 1 ч. 41 м.
Вид битрейта : Постоянный
Битрейт : 1510 Кбит/сек
Каналы : 6 каналов
Расположение каналов : Front: L C R, Side: L R, LFE
Частота : 48,0 КГц
Битовая глубина : 16 бит
Метод сжатия : С потерями
Размер потока : 1,07 Гбайт (8%)
Заголовок : DTS 5.1 @ 1536 kbps - Dub, R5
Язык : Russian
Default : Нет
Forced : Нет

Аудио #3
Идентификатор : 4
Формат : DTS
Формат/Информация : Digital Theater Systems
Режим : 16
Параметр Endianness формата : Big
Идентификатор кодека : A_DTS
Продолжительность : 1 ч. 41 м.
Вид битрейта : Постоянный
Битрейт : 1509 Кбит/сек
Каналы : 6 каналов
Расположение каналов : Front: L C R, Side: L R, LFE
Частота : 48,0 КГц
Битовая глубина : 24 бит
Метод сжатия : С потерями
Размер потока : 1,07 Гбайт (8%)
Заголовок : DTS 5.1 @ 1536 kbps
Язык : English
Default : Нет
Forced : Нет

Текст #1
Идентификатор : 5
Формат : UTF-8
Идентификатор кодека : S_TEXT/UTF8
Идентификатор кодека/Информация : UTF-8 Plain Text
Язык : Russian
Default : Нет
Forced : Нет

Текст #2
Идентификатор : 6
Формат : UTF-8
Идентификатор кодека : S_TEXT/UTF8
Идентификатор кодека/Информация : UTF-8 Plain Text
Язык : English
Default : Нет
Forced : Нет

Текст #3
Идентификатор : 7
Формат : UTF-8
Идентификатор кодека : S_TEXT/UTF8
Идентификатор кодека/Информация : UTF-8 Plain Text
Заголовок : SDH
Язык : English
Default : Нет
Forced : Нет

Текст #4
Идентификатор : 8
Формат : UTF-8
Идентификатор кодека : S_TEXT/UTF8
Идентификатор кодека/Информация : UTF-8 Plain Text
Язык : Spanish
Default : Нет
Forced : Нет

Меню
00:00:00.000 : en:00:00:00.000
00:04:30.729 : en:00:04:30.729
00:08:55.160 : en:00:08:55.160
00:13:02.949 : en:00:13:02.949
00:17:14.450 : en:00:17:14.450
00:23:05.342 : en:00:23:05.342
00:28:31.752 : en:00:28:31.752
00:35:37.719 : en:00:35:37.719
00:39:06.427 : en:00:39:06.427
00:42:46.772 : en:00:42:46.772
00:46:20.444 : en:00:46:20.444
00:51:48.772 : en:00:51:48.772
00:59:14.342 : en:00:59:14.342
01:03:59.085 : en:01:03:59.085
01:07:26.334 : en:01:07:26.334
01:11:07.972 : en:01:11:07.972
01:15:20.808 : en:01:15:20.808
01:18:41.091 : en:01:18:41.091
01:23:02.978 : en:01:23:02.978
01:26:48.787 : en:01:26:48.787
01:30:13.825 : en:01:30:13.825
01:31:26.731 : en:01:31:26.731
01:35:31.601 : en:01:35:31.601
Свернуть
Скриншоты
Изображение
Изображение
Изображение
Изображение
Свернуть
Не в сети
Профиль  
Начать новую темуОтветить на тему  [ 1 сообщение ] 
Вы не можете начинать темы
Вы не можете отвечать на сообщения
Вы не можете редактировать свои сообщения
Вы не можете удалять свои сообщения