Правила форума

  • В этом разделе создание новых тем Запрещено.
  • Для создания новых тем пользуйтесь Корневым разделом DVD и HD фильмы.
Начать новую темуОтветить на тему  [ Сообщений: 5 ] 
Торрент файл
Размер: 3.78 GB • Зарегистрирован: 5 лет 4 месяца • Статус: T Временный релиз
Скачан: 45 раз • Желающих скачать: 0 • Поблагодарили: 10 раз
 Раздают: 0  |  0 KB/s  ]   Качают: 0  |  0 KB/s  ] 
 Полного источника не было 3 года 2 месяца 
Сообщения
 Добавлено: 2011-07-13 18:06
Книголюб
Аватара пользователя
Стаж: 7 лет 2 месяца
Сообщений: 2823
Спасибок: 48828
Лайков: 73
Дом восходящего солнца
House of the Rising Sun

Изображение


Год выпуска: 2011
Страна: США
Слоган: «They took his badge. He kept the gun.»
Жанр: боевик, триллер, драма, криминал
Продолжительность: 1ч.30мин.
Перевод: Любительский (многоголосый)

Режиссёр: Брайан Миллер, Брайан А Миллер
Сценарист: Чак Хастмайр, Брайан А Миллер
В ролях: Дэйв Батиста, Эми Смарт, Доминик Пурселл, Дэнни Трэхо, Крэйг Фэйрбрасс, Брайан Вандер Арк, Рой Ораскин, Тим Филдс, Дебра Харрисон-Лоу, Лайл Кэйнаус
Описание: Рэй, экс-полицейский, начинает новую жизнь. Но однажды вечером, ночной клуб в котором он работает, ограблен, и сын владельца застрелен. Преступное прошлое Рэя делает его главным подозреваемым, и он начинает искать преступника что бы очистить свое имя.
Мировая премьера: 19 июля 2011
Бюджет: $1 500 000
Изображение 77% 173

Качество: BDRip 720p
Формат: MP4
Видео кодек: H264 (AVC)
Аудио кодек: AC3 (Dolby Digital)
Видео: 1280x720 23.98fps 4221 Kbps, 0.191Bits/Pixel
Audio1: Russian: AC3, 448 Kbps (6 ch) (Любительский двухголосый)
Audio2: English: DTS, 1510 Kbps (6 ch)
MediaInfo
General
Unique ID : 246248351208900450548120533350340822720 (0xB941B513E6BF5E1DBFF4AAF975F706C0)
Complete name : J:\Dom.voshodjashego.solntsa.2011.BDRip.mkv
Format : Matroska
File size : 3.78 GiB
Duration : 1h 27mn
Overall bit rate : 6 183 Kbps
Movie name : Rip by - LIKA17 - X-TORRENTS
Encoded date : UTC 2011-07-07 15:11:35
Writing application : mkvmerge v4.8.0 ('I Got The...') сборка от May 24 2011 03:12:58
Writing library : libebml v1.2.0 + libmatroska v1.1.0

Video
ID : 1
Format : AVC
Format/Info : Advanced Video Codec
Format profile : High@L4.1
Format settings, CABAC : Yes
Format settings, ReFrames : 9 frames
Codec ID : V_MPEG4/ISO/AVC
Duration : 1h 27mn
Bit rate : 4 221 Kbps
Width : 1 280 pixels
Height : 720 pixels
Display aspect ratio : 16:9
Frame rate : 23.976 fps
Color space : YUV
Chroma subsampling : 4:2:0
Bit depth : 8 bits
Scan type : Progressive
Bits/(Pixel*Frame) : 0.191
Stream size : 2.51 GiB (66%)
Title : House.of.Rising.sun\House.of.Rising.sun.2011.BluRay.720p.DTS.x264-CHD
Writing library : x264 core 115 r2008+578 3864dbe
Encoding settings : cabac=1 / ref=9 / deblock=1:-3:-3 / analyse=0x3:0x113 / me=umh / subme=10 / psy=1 / fade_compensate=0.00 / psy_rd=1.10:0.15 / mixed_ref=1 / me_range=32 / chroma_me=1 / trellis=2 / 8x8dct=1 / cqm=2 / deadzone=21,11 / fast_pskip=0 / chroma_qp_offset=-2 / threads=32 / sliced_threads=0 / nr=0 / decimate=1 / interlaced=0 / bluray_compat=0 / constrained_intra=0 / fgo=0 / bframes=6 / b_pyramid=2 / b_adapt=2 / b_bias=0 / direct=3 / weightb=1 / open_gop=0 / weightp=2 / keyint=250 / keyint_min=23 / scenecut=40 / intra_refresh=0 / rc_lookahead=60 / rc=2pass / mbtree=1 / bitrate=4221 / ratetol=1.0 / qcomp=0.60 / qpmin=1 / qpmax=63 / qpstep=4 / cplxblur=20.0 / qblur=0.5 / vbv_maxrate=40000 / vbv_bufsize=30000 / nal_hrd=none / ip_ratio=1.40 / aq=1:0.80
Language : English

Audio #1
ID : 2
Format : AC-3
Format/Info : Audio Coding 3
Mode extension : CM (complete main)
Codec ID : A_AC3
Duration : 1h 27mn
Bit rate mode : Constant
Bit rate : 448 Kbps
Channel(s) : 6 channels
Channel positions : Front: L C R, Side: L R, LFE
Sampling rate : 48.0 KHz
Bit depth : 16 bits
Compression mode : Lossy
Stream size : 281 MiB (7%)
Language : Russian

Audio #2
ID : 3
Format : DTS
Format/Info : Digital Theater Systems
Codec ID : A_DTS
Duration : 1h 27mn
Bit rate mode : Constant
Bit rate : 1 510 Kbps
Channel(s) : 6 channels
Channel positions : Front: L C R, Side: L R, LFE
Sampling rate : 48.0 KHz
Bit depth : 24 bits
Compression mode : Lossy
Stream size : 946 MiB (24%)
Title : dts 5.1 1536kbps
Language : English


Свернуть

Скриншоты
Изображение
Изображение
Изображение
Изображение
Изображение
Свернуть
Не в сети
Профиль  
 Добавлено: 2011-07-13 18:43 (спустя 37 минут)
Top-seeder
Аватара пользователя
Стаж: 7 лет 6 месяцев
Возраст: 27
Сообщений: 2421
Спасибок: 455
Лайков: 14
надо скачать,когда новинки гляну !
спс !
Не в сети
Профиль  
 Добавлено: 2011-07-13 20:26 (спустя 1 час 42 минуты)
Стаж: 8 лет
Сообщений: 152
Лайков: 29
Смарт там сиськи показывает? отпишитесь, а? а то непонятно: смотреть или не смотреть...
Не в сети
Профиль  
 Добавлено: 2011-07-14 18:50 (спустя 22 часа)
Top-seeder
Аватара пользователя
Стаж: 7 лет 6 месяцев
Возраст: 27
Сообщений: 2421
Спасибок: 455
Лайков: 14
koolman
:-D :co_ol:
Не в сети
Профиль  
 Добавлено: 2011-07-15 20:59 (спустя 1 день 2 часа)
Стаж: 8 лет 9 месяцев
Сообщений: 6
Спасибок: 34
На последней фотке - Валуев в дубленке с Черкизона
Не в сети
Профиль  
Начать новую темуОтветить на тему  [ Сообщений: 5 ] 
Вы не можете начинать темы
Вы не можете отвечать на сообщения
Вы не можете редактировать свои сообщения
Вы не можете удалять свои сообщения