Правила форума

  • В этом разделе создание новых тем Запрещено.
  • Для создания новых тем пользуйтесь Корневым разделом DVD и HD фильмы.
Начать новую темуОтветить на тему  [ 1 сообщение ] 
Торрент файл
Размер: 7.71 GB • Зарегистрирован: 2 года • Статус: Проверено
Скачан: 131 раз • Желающих скачать: 0 • Поблагодарили: 28 раз
 Раздают: 0  |  0 KB/s  ]   Качают: 0  |  0 KB/s  ] 
 Полного источника не было 2 часа 7 минут 
Сообщения
 Добавлено: 2014-11-15 19:23
Аватара пользователя
Стаж: 9 лет 1 месяц
Сообщений: 8120
Спасибок: 122355
Лайков: 1196
Домашнее видео / Sex Tape

«Сними, но удали»

Изображение


Год выпуска: 2014
Страна: Изображение США
Жанр: комедия
Продолжительность: 01:34:35
Субтитры: Aнглийские
Перевод: Профессиональный (полное дублирование) [Лицензия]



Режиссер: Джейк Кэздан
Сценарий: Кейт Анджело, Джейсон Сигел, Николас Столлер
Продюсер: Тодд Блэк, Джейсон Блюменталь, Стив Тиш
Оператор: Тим Зурштедт
Композитор: Майкл Эндрюс

В ролях: Кэмерон Диаз, Джейсон Сигел, Роб Кордри, Элли Кемпер, Роб Лоу, Нат Факсон, Нэнси Ленехан, Жизелль Эйзенберг, Харрисон Хольцер, Себастьян Хеджес Томас



Описание: Семейная пара, оставшись на одну ночь без детей, решает повеселиться и записать пикантное видео со своим участием. На следующее утро они обнаруживают, что видео видели не только они…


Изображение Изображение


Раздача группы: Изображение


Качество: BDRip (1080p)
Формат: Matroska
Видео: MPEG-4 AVC, 8888 Кбит/с, 1920x1036, 23.976 кадр/с
Аудио №1: Русский (AC3, 48,0 КГц, 6 ch, 640 Кбит/c)
Аудио №2: Русский (DTS, 48,0 КГц, 6 ch, 1510 Кбит/c)

MediaInfo
Общее
Уникальный идентификатор : 242070583205525747574546392023954041555 (0xB61D19365177710290A2EA4543FB2AD3)
Полное имя : D:\Загрузки\Sex.Tape.2014.x264.BDRip.(1080p).ExKinoRay.mkv
Формат : Matroska
Версия формата : Version 2
Размер файла : 7,71 Гбайт
Продолжительность : 1 ч. 34 м.
Общий поток : 11,7 Мбит/сек
Название фильма : Домашнее видео.2014.Rip by: ollan
Дата кодирования : UTC 2014-11-15 10:01:55
Программа кодирования : mkvmerge v5.6.0 ('Kenya Kane') built on May 27 2012 16:44:04
Библиотека кодирования : libebml v1.2.3 + libmatroska v1.3.0

Видео
Идентификатор : 1
Формат : AVC
Формат/Информация : Advanced Video Codec
Профиль формата : High@L4.1
Параметр CABAC формата : Да
Параметр ReFrames формата : 4 кадра
Идентификатор кодека : V_MPEG4/ISO/AVC
Продолжительность : 1 ч. 34 м.
Битрейт : 8888 Кбит/сек
Ширина : 1920 пикселей
Высота : 1036 пикселей
Соотношение сторон : 1,85:1
Режим частоты кадров : Постоянный
Частота кадров : 23,976 кадра/сек
Цветовое пространство : YUV
Субдискретизация насыщенности : 4:2:0
Битовая глубина : 8 бит
Тип развёртки : Прогрессивная
Бит/(Пиксели*Кадры) : 0.186
Размер потока : 5,72 Гбайт (74%)
Библиотека кодирования : x264 core 125 r2200 999b753
Настройки программы : cabac=1 / ref=4 / deblock=1:-3:-3 / analyse=0x3:0x133 / me=umh / subme=11 / psy=1 / psy_rd=1.00:0.10 / mixed_ref=1 / me_range=32 / chroma_me=1 / trellis=2 / 8x8dct=1 / cqm=0 / deadzone=21,11 / fast_pskip=0 / chroma_qp_offset=-3 / threads=12 / lookahead_threads=2 / sliced_threads=0 / nr=0 / decimate=0 / interlaced=0 / bluray_compat=0 / constrained_intra=0 / bframes=9 / b_pyramid=2 / b_adapt=2 / b_bias=0 / direct=3 / weightb=1 / open_gop=0 / weightp=2 / keyint=240 / keyint_min=23 / scenecut=40 / intra_refresh=0 / rc_lookahead=60 / rc=2pass / mbtree=1 / bitrate=8888 / ratetol=1.0 / qcomp=0.60 / qpmin=0 / qpmax=69 / qpstep=4 / cplxblur=20.0 / qblur=0.5 / ip_ratio=1.40 / aq=1:1.00
Язык : English
Default : Да
Forced : Нет

Аудио #1
Идентификатор : 2
Формат : AC-3
Формат/Информация : Audio Coding 3
Расширение режима : CM (complete main)
Параметр Endianness формата : Big
Идентификатор кодека : A_AC3
Продолжительность : 1 ч. 34 м.
Вид битрейта : Постоянный
Битрейт : 640 Кбит/сек
Каналы : 6 каналов
Расположение каналов : Front: L C R, Side: L R, LFE
Частота : 48,0 КГц
Битовая глубина : 16 бит
Метод сжатия : С потерями
Размер потока : 433 Мбайт (5%)
Заголовок : Дублированный (лицензия)
Язык : Russian
Default : Да
Forced : Нет

Аудио #2
Идентификатор : 3
Формат : AC-3
Формат/Информация : Audio Coding 3
Расширение режима : CM (complete main)
Параметр Endianness формата : Big
Идентификатор кодека : A_AC3
Продолжительность : 1 ч. 34 м.
Вид битрейта : Постоянный
Битрейт : 640 Кбит/сек
Каналы : 6 каналов
Расположение каналов : Front: L C R, Side: L R, LFE
Частота : 48,0 КГц
Битовая глубина : 16 бит
Метод сжатия : С потерями
Размер потока : 433 Мбайт (5%)
Заголовок : Дублированный (лицензия)
Язык : Ukrainian
Default : Нет
Forced : Нет

Аудио #3
Идентификатор : 4
Формат : DTS
Формат/Информация : Digital Theater Systems
Режим : 16
Параметр Endianness формата : Big
Идентификатор кодека : A_DTS
Продолжительность : 1 ч. 34 м.
Вид битрейта : Постоянный
Битрейт : 1509 Кбит/сек
Каналы : 6 каналов
Расположение каналов : Front: L C R, Side: L R, LFE
Частота : 48,0 КГц
Битовая глубина : 16 бит
Метод сжатия : С потерями
Размер потока : 1021 Мбайт (13%)
Язык : English
Default : Нет
Forced : Нет

Текст
Идентификатор : 5
Формат : UTF-8
Идентификатор кодека : S_TEXT/UTF8
Идентификатор кодека/Информация : UTF-8 Plain Text
Заголовок : Full
Язык : English
Default : Нет
Forced : Нет

Меню
00:00:00.000 : en:00:00:00.000
00:03:53.483 : en:00:03:53.483
00:09:34.073 : en:00:09:34.073
00:14:36.626 : en:00:14:36.626
00:20:05.287 : en:00:20:05.287
00:27:21.014 : en:00:27:21.014
00:34:03.667 : en:00:34:03.667
00:40:19.167 : en:00:40:19.167
00:45:21.636 : en:00:45:21.636
00:50:42.706 : en:00:50:42.706
00:57:41.541 : en:00:57:41.541
01:05:34.556 : en:01:05:34.556
01:11:51.682 : en:01:11:51.682
01:20:06.510 : en:01:20:06.510
01:25:16.737 : en:01:25:16.737
01:29:47.299 : en:01:29:47.299
Свернуть
Знаете ли вы, что...
В 1989-м году Роб Лоу, сыгравший роль Хэнка в этом фильме, стал героем скандальной истории, связанной с его собственной кассетой с домашним видео.

У фильма было рабочее название Basic Math («Основы математики»). Такой выбор был связан с тем, что для проекта с названием Sex Tape было очень трудно получить разрешение на съемки в различных местах.

Режиссером этого фильма мог стать Николас Столлер, но он вынужден был покинуть проект из-за несогласованности съемочных графиков.

Телефонный номер, который высвечивается идентификатором вызывающего абонента (310-760-7511), не содержит привычного префикса — 555.

Свернуть
Скриншоты
Изображение
Изображение
Изображение
Изображение]
Свернуть
В сети
Профиль  
Начать новую темуОтветить на тему  [ 1 сообщение ] 
Вы не можете начинать темы
Вы не можете отвечать на сообщения
Вы не можете редактировать свои сообщения
Вы не можете удалять свои сообщения