Правила форума

  • В этом разделе создание новых тем Запрещено.
  • Для создания новых тем пользуйтесь Корневым разделом DVD и HD фильмы.
Начать новую темуОтветить на тему  [ 1 сообщение ] 
Торрент файл
Размер: 4.59 GB • Зарегистрирован: 4 года 8 месяцев • Статус: Проверено
Скачан: 18 раз • Желающих скачать: 0 • Поблагодарили: 5 раз
 Раздают: 0  |  0 KB/s  ]   Качают: 0  |  0 KB/s  ] 
 Полного источника не было 2 года 
Сообщения
 Добавлено: 2012-03-20 17:49
Аватара пользователя
Стаж: 4 года 11 месяцев
Сообщений: 24
Спасибок: 357
Домашняя работа
The Art of Getting By


«The toughest lesson is love.»

Изображение


Год выхода: 2011
Страна: США

Жанр: драма, мелодрама
Продолжительность: 01:23:17
Перевод: Дублированное [лицензия]

Режиссер: Гэвин Вьесен
Сценарий: Гэвин Вьесен
Продюсер: Кара Бэйкер, Гия Уолш, П. Дженнифер Дэна
Оператор: Бен Катчинс
Композитор: Алек Пуро

В ролях: Фредди Хаймор, Эмма Робертс, Саша Спилберг, Маркус Карл Франклин, Энн Дауд, Майя Ри Санчез, Блэр Андервуд, Энн Харада, Рита Уилсон, Ярлат Конрой, Майкл Ангарано, Алисия Сильверстоун

Описание: История повествует о парне, который имеет славу разгильдяя и двоечника. У него появляется реальный шанс понравиться девушке своей мечты.

Изображение

Изображение

Качество BDRip 720p R5
Формат: Mkv

Видео: MPEG4 Video (H264) 1280x532 23.98fps
Аудио 1: Dolby AC3 48000Hz 6ch 384 Kbps
Аудио 2: DTS 48000Hz 6ch 1 510 Kbps
Subtitle: Utf-8 (Rus, Eng)

Изображение

MediaInfo
General
Unique ID : 244475471294617148739569882001712098960 (0xB7EC43596FD78BFE9308EF1F671C2E90)
Complete name : E:\Download\Domashhyaya.Rabota.2011.DVD_RG.BDRip.720p.mkv
Format : Matroska
Format version : Version 2
File size : 4.59 GiB
Duration : 1h 23mn
Overall bit rate : 7 890 Kbps
Movie name : Reliz by IronClub
Encoded date : UTC 2012-03-18 18:29:27
Writing application : mkvmerge v5.3.0 ('I could have danced') built on Feb 9 2012 10:38:07
Writing library : libebml v1.2.3 + libmatroska v1.3.0

Video
ID : 1
Format : AVC
Format/Info : Advanced Video Codec
Format profile : High@L4.1
Format settings, CABAC : Yes
Format settings, ReFrames : 12 frames
Codec ID : V_MPEG4/ISO/AVC
Duration : 1h 23mn
Bit rate : 5 994 Kbps
Width : 1 280 pixels
Height : 532 pixels
Display aspect ratio : 2.40:1
Frame rate : 23.976 fps
Color space : YUV
Chroma subsampling : 4:2:0
Bit depth : 8 bits
Scan type : Progressive
Bits/(Pixel*Frame) : 0.367
Stream size : 3.40 GiB (74%)
Title : The.Art.of.Getting.By.2011
Writing library : x264 core 118 r2085+614 d1cc25d
Encoding settings : cabac=1 / ref=12 / deblock=1:-3:-3 / analyse=0x3:0x113 / me=umh / subme=10 / psy=1 / fade_compensate=0.00 / psy_rd=1.05:0.10 / mixed_ref=1 / me_range=32 / chroma_me=1 / trellis=2 / 8x8dct=1 / cqm=2 / deadzone=21,11 / fast_pskip=0 / chroma_qp_offset=-2 / threads=12 / sliced_threads=0 / nr=0 / decimate=1 / interlaced=0 / bluray_compat=0 / constrained_intra=0 / fgo=0 / bframes=6 / b_pyramid=2 / b_adapt=2 / b_bias=0 / direct=3 / weightb=1 / open_gop=0 / weightp=2 / keyint=250 / keyint_min=23 / scenecut=40 / intra_refresh=0 / rc_lookahead=40 / rc=2pass / mbtree=1 / bitrate=5994 / ratetol=1.0 / qcomp=0.60 / qpmin=1 / qpmax=63 / qpstep=4 / cplxblur=20.0 / qblur=0.5 / vbv_maxrate=40000 / vbv_bufsize=30000 / nal_hrd=none / ip_ratio=1.40 / aq=2:1.00
Language : English
Default : Yes
Forced : No

Audio #1
ID : 2
Format : AC-3
Format/Info : Audio Coding 3
Mode extension : CM (complete main)
Codec ID : A_AC3
Duration : 1h 23mn
Bit rate mode : Constant
Bit rate : 384 Kbps
Channel(s) : 6 channels
Channel positions : Front: L C R, Side: L R, LFE
Sampling rate : 48.0 KHz
Bit depth : 16 bits
Compression mode : Lossy
Stream size : 229 MiB (5%)
Language : Russian
Default : Yes
Forced : No

Audio #2
ID : 3
Format : DTS
Format/Info : Digital Theater Systems
Codec ID : A_DTS
Duration : 1h 23mn
Bit rate mode : Constant
Bit rate : 1 510 Kbps
Channel(s) : 6 channels
Channel positions : Front: L C R, Side: L R, LFE
Sampling rate : 48.0 KHz
Bit depth : 24 bits
Compression mode : Lossy
Stream size : 899 MiB (19%)
Language : English
Default : No
Forced : No

Text #1
ID : 4
Format : UTF-8
Codec ID : S_TEXT/UTF8
Codec ID/Info : UTF-8 Plain Text
Language : Russian
Default : No
Forced : No

Text #2
ID : 5
Format : UTF-8
Codec ID : S_TEXT/UTF8
Codec ID/Info : UTF-8 Plain Text
Language : English
Default : No
Forced : No


Свернуть
Скриншоты
Изображение

Изображение

Изображение

Изображение

Изображение
Свернуть
Не в сети
Профиль  
Начать новую темуОтветить на тему  [ 1 сообщение ] 
Вы не можете начинать темы
Вы не можете отвечать на сообщения
Вы не можете редактировать свои сообщения
Вы не можете удалять свои сообщения