Правила форума

  • В этом разделе создание новых тем Запрещено.
  • Для создания новых тем пользуйтесь Корневым разделом DVD и HD фильмы.
Начать новую темуОтветить на тему  [ Сообщений: 8 ] 
Торрент файл
Размер: 12.21 GB • Зарегистрирован: 3 года 7 месяцев • Статус: Проверено
Скачан: 128 раз • Желающих скачать: 0 • Поблагодарили: 44 раза
 Раздают: 0  |  0 KB/s  ]   Качают: 0  |  0 KB/s  ] 
 Полного источника не было 8 часов 
Сообщения
 Добавлено: 2013-04-14 09:32
Модератор релиз-группы
Аватара пользователя
Стаж: 7 лет 8 месяцев
Возраст: 29
Сообщений: 9789
Спасибок: 23729
Лайков: 103
Изображение

Донни Дарко
Donnie Darko


Год выпуска: 2001
Страна: США
Слоган: «The cult phenomenon returns summer 2004.»
Жанр: Мистический триллер, фантастика, драма, детектив
Продолжительность: 02:13:51
Перевод: Профессиональный (многоголосый, закадровый)
Авторский (Гаврилов Андрей)
Авторский (Иванов Михаил)

Режиссер: Ричард Келли
Сценарий: Ричард Келли
Продюсер: Адам Филдс, Нэнси Джавонен, Шон МакКиттрик, Кристофер Болл, Уильям Тайрер
Оператор: Стивен Б. Постер
Композитор: Майкл Эндрюс
В ролях: Джейк Джилленхол, Джена Мэлоун, Мэгги Джилленхол, Мэри МакДоннелл, Холмс Осборн, Патрик Суэйзи, Ноа Уайли, Дрю Бэрримор, Джеймс Дювал, Кэтрин Росс, Бет Грант, Сет Роген
Бюджет: $6 000 000
Мировая премьера: 19 января 2001
Описание: К своим 16 годам старшеклассник Донни уже знает, что такое смерть. После несчастного случая, едва не стоившего ему жизни, Донни открывает в себе способности изменять время и судьбу. Перемены, случившиеся с ним, пугают всех, кто его окружает — родителей, сестер, учителей, друзей, любимую девушку.
Изображение
MPAA: R - Лицам до 17 лет обязательно присутствие взрослого
Раздача группы: Изображение
Качество: BDRip, 1080p
Формат: MKV
Видео: AVC; 1920x808 (2.35:1); 10091 Kbps; 23,976 fps; 0,271 bit/pixel
Аудио №1: русский; AC3; 448 Kbps; CBR; 6 ch
Аудио №2: русский; AC3; 448 Kbps; CBR; 6 ch
Аудио №3: русский; AC3; 224 Kbps; CBR; 5 ch
Аудио №4: английский; DTS; 1510 Kbps; CBR; 6 ch; 24 bit
Аудио №5: английский; Vorbis; 80 Kbps; CBR; 2 ch

Субтитры №1: русские
Субтитры №2: английские

mediainfo
Общее
Уникальный идентификатор : 185209050192990133269536874172392588087 (0x8B55F72FD88A06E59ECF08E7C9BEC337)
Полное имя : D:\TORRENT\Donnie.Darko.(rezhisorskaja.versija).2001.x264.BDRip.1080p.mkv
Формат : Matroska
Размер файла : 12,2 Гбайт
Продолжительность : 2 ч. 13 м.
Общий поток : 13,1 Мбит/сек
Дата кодирования : UTC 2009-11-07 15:23:53
Программа кодирования : mkvmerge v2.9.8 ('C'est le bon') built on Aug 13 2009 12:49:06
Библиотека кодирования : libebml v0.7.7 + libmatroska v0.8.1

Видео
Идентификатор : 1
Формат : AVC
Формат/Информация : Advanced Video Codec
Профиль формата : High@L4.1
Параметр CABAC формата : Да
Параметр ReFrames формата : 5 кадров
Идентификатор кодека : V_MPEG4/ISO/AVC
Продолжительность : 2 ч. 13 м.
Битрейт : 10,4 Мбит/сек
Ширина : 1920 пикс.
Высота : 808 пикс.
Соотношение сторон : 2,35:1
Частота кадров : 23,976 кадр/сек
Цветовое пространство : YUV
Подвыборка цветности : 4:2:0
Битовая глубина : 8 бит
Тип развёртки : Прогрессивная
Бит/(Пиксели*Кадры) : 0.279
Размер потока : 9,44 Гбайт (77%)
Заголовок : H.264
Библиотека кодирования : x264 core 66 r1113M cc4f807
Настройки программы : cabac=1 / ref=5 / deblock=1:-3:-3 / analyse=0x3:0x113 / me=umh / subme=9 / psy_rd=1.3:0.0 / mixed_ref=1 / me_range=24 / chroma_me=1 / trellis=2 / 8x8dct=1 / cqm=0 / deadzone=21,11 / chroma_qp_offset=-2 / threads=6 / nr=0 / decimate=1 / mbaff=0 / bframes=5 / b_pyramid=0 / b_adapt=2 / b_bias=0 / direct=3 / wpredb=1 / keyint=250 / keyint_min=25 / scenecut=40(pre) / rc=2pass / bitrate=10359 / ratetol=1.0 / qcomp=0.60 / qpmin=10 / qpmax=51 / qpstep=4 / cplxblur=20.0 / qblur=0.5 / vbv_maxrate=50000 / vbv_bufsize=50000 / ip_ratio=1.40 / pb_ratio=1.30 / aq=1:1.00
Язык : English

Аудио #1
Идентификатор : 2
Формат : AC-3
Формат/Информация : Audio Coding 3
Расширение режима : CM (complete main)
Идентификатор кодека : A_AC3
Продолжительность : 2 ч. 13 м.
Вид битрейта : Постоянный
Битрейт : 448 Кбит/сек
Каналы : 6 каналов
Расположение каналов : Front: L C R, Side: L R, LFE
Частота : 48,0 КГц
Битовая глубина : 16 бит
Метод сжатия : С потерями
Размер потока : 429 Мбайт (3%)
Заголовок : Russian DD 5.1-448.00 kbps |Киномания|
Язык : Russian

Аудио #2
Идентификатор : 3
Формат : AC-3
Формат/Информация : Audio Coding 3
Расширение режима : CM (complete main)
Идентификатор кодека : A_AC3
Продолжительность : 2 ч. 13 м.
Вид битрейта : Постоянный
Битрейт : 448 Кбит/сек
Каналы : 6 каналов
Расположение каналов : Front: L C R, Side: L R, LFE
Частота : 48,0 КГц
Битовая глубина : 16 бит
Метод сжатия : С потерями
Размер потока : 429 Мбайт (3%)
Заголовок : Russian DD 5.1-448.00 kbps |Гаврилов|
Язык : Russian

Аудио #3
Идентификатор : 4
Формат : AC-3
Формат/Информация : Audio Coding 3
Расширение режима : CM (complete main)
Идентификатор кодека : A_AC3
Продолжительность : 2 ч. 13 м.
Вид битрейта : Постоянный
Битрейт : 224 Кбит/сек
Каналы : 5 каналов
Расположение каналов : Front: L C R, Side: L R
Частота : 48,0 КГц
Битовая глубина : 16 бит
Метод сжатия : С потерями
Размер потока : 214 Мбайт (2%)
Заголовок : Russian DD 5.0-224.00 kbps |Иванов Михаил|
Язык : Russian

Аудио #4
Идентификатор : 5
Формат : DTS
Формат/Информация : Digital Theater Systems
Идентификатор кодека : A_DTS
Продолжительность : 2 ч. 13 м.
Вид битрейта : Постоянный
Битрейт : 1510 Кбит/сек
Каналы : 6 каналов
Расположение каналов : Front: L C R, Side: L R, LFE
Частота : 48,0 КГц
Битовая глубина : 24 бит
Метод сжатия : С потерями
Размер потока : 1,41 Гбайт (12%)
Заголовок : English DTS 5.1-1536kbps
Язык : English

Аудио #5
Идентификатор : 6
Формат : Vorbis
Параметр Floor формата : 1
Идентификатор кодека : A_VORBIS
Продолжительность : 2 ч. 13 м.
Вид битрейта : Постоянный
Битрейт : 80,0 Кбит/сек
Каналы : 2 канала
Частота : 48,0 КГц
Метод сжатия : С потерями
Размер потока : 76,6 Мбайт (1%)
Заголовок : OGG2.0-Commentary (by Richard Kelly and Kevin Smith)
Библиотека кодирования : libVorbis 1.2 (UTC 2007-06-22)
Язык : English

Текст #1
Идентификатор : 7
Формат : UTF-8
Идентификатор кодека : S_TEXT/UTF8
Идентификатор кодека/Информация : UTF-8 Plain Text
Язык : Russian

Текст #2
Идентификатор : 8
Формат : UTF-8
Идентификатор кодека : S_TEXT/UTF8
Идентификатор кодека/Информация : UTF-8 Plain Text
Язык : English

Меню
00:00:00.000 : :Chapter01
00:04:16.000 : :Chapter02
00:09:10.000 : :Chapter03
00:13:00.000 : :Chapter04
00:18:13.000 : :Chapter05
00:23:18.000 : :Chapter06
00:27:08.000 : :Chapter07
00:31:39.000 : :Chapter08
00:35:09.000 : :Chapter09
00:41:24.000 : :Chapter10
00:44:46.000 : :Chapter11
00:50:32.000 : :Chapter12
00:56:24.000 : :Chapter13
00:59:51.000 : :Chapter14
01:04:49.000 : :Chapter15
01:10:17.000 : :Chapter16
01:15:31.000 : :Chapter17
01:18:56.000 : :Chapter18
01:23:24.000 : :Chapter19
01:27:35.000 : :Chapter20
01:31:36.000 : :Chapter21
01:37:15.000 : :Chapter22
01:39:40.000 : :Chapter23
01:44:34.000 : :Chapter24
01:48:52.000 : :Chapter25
01:53:08.000 : :Chapter26
01:58:48.000 : :Chapter27
02:03:00.000 : :Chapter28
Свернуть
Скриншоты

Изображение
Изображение
Изображение
Изображение
Изображение
Изображение
Изображение
Свернуть
Не в сети
Профиль  
 Добавлено: 2013-05-23 20:23 (спустя 1 месяц 9 дней)
Top-releaser
Аватара пользователя
Стаж: 7 лет 4 месяца
Возраст: 38
Сообщений: 5347
Спасибок: 10058
Лайков: 2936
Реально классный фильм!
Не в сети
Профиль  
 Добавлено: 2014-03-21 16:32 (спустя 9 месяцев)
Стаж: 6 лет 10 месяцев
Сообщений: 21
дайте скорости!!!!!!!!
Не в сети
Профиль  
 Добавлено: 2014-04-29 21:35 (спустя 1 месяц 8 дней)
Аватара пользователя
Стаж: 8 лет 11 месяцев
Сообщений: 13
Спасибок: 2
Лайков: 2
Чушь полная.
Не в сети
Профиль  
 Добавлено: 2014-05-01 12:11 (спустя 1 день 14 часов)
Аватара пользователя
Стаж: 8 лет 3 месяца
Сообщений: 1690
Спасибок: 21277
Лайков: 6
volkov2009
Постер от другого фильма, можно бы, да и нужно заменить.
Не в сети
Профиль  
 Добавлено: 2014-05-04 14:48 (спустя 3 дня)
Модератор релиз-группы
Аватара пользователя
Стаж: 7 лет 8 месяцев
Возраст: 29
Сообщений: 9789
Спасибок: 23729
Лайков: 103
fearless54
от какого если не секрет?
Не в сети
Профиль  
 Добавлено: 2014-05-04 19:13 (спустя 4 часа)
Стаж: 9 лет 1 месяц
Сообщений: 171
Спасибок: 19
groomm
Ценитель на торренте, все в Канны.
Не в сети
Профиль  
 Добавлено: 2014-05-04 22:46 (спустя 3 часа)
Аватара пользователя
Стаж: 8 лет 3 месяца
Сообщений: 1690
Спасибок: 21277
Лайков: 6

volkov2009:

fearless54
от какого если не секрет?
Нет, конечно :) Вот он > С. Дарко (видео) / S. Darko (Крис Фишер).
Не в сети
Профиль  
Начать новую темуОтветить на тему  [ Сообщений: 8 ] 
Вы не можете начинать темы
Вы не можете отвечать на сообщения
Вы не можете редактировать свои сообщения
Вы не можете удалять свои сообщения