Правила форума

  • В этом разделе создание новых тем Запрещено.
  • Для создания новых тем пользуйтесь Корневым разделом DVD и HD фильмы.
Начать новую темуОтветить на тему  [ 1 сообщение ] 
Торрент файл
Размер: 9.85 GB • Зарегистрирован: 4 года 6 месяцев • Статус: Проверено
Скачан: 33 раза • Желающих скачать: 0 • Поблагодарили: 2 раза
 Раздают: 0  |  0 KB/s  ]   Качают: 0  |  0 KB/s  ] 
 Полного источника не было 3 года 2 месяца 
Сообщения
 Добавлено: 2012-06-02 06:56
Top-seeder
Аватара пользователя
Стаж: 9 лет
Сообщений: 1399
Спасибок: 28652
Лайков: 8
Дорожное приключение / Road Trip

Изображение


Год выпуска: 2000
Страна: США
Жанр: комедия, приключения
Продолжительность: 01:34:13
Перевод: Профессиональный (полное дублирование)
Перевод: Профессиональный (многоголосый, закадровый)
Перевод: Профессиональный (двухголосый, закадровый)
Перевод: Авторский (одноголосый, закадровый)
Субтитры: русские (x2), английские
Режиссер: Тодд Филлипс / Todd Phillips

Качество: BDRip 720p
Формат: MKV
Видео: MPEG-4 AVC Video / 10900 kbps / 1280x720p / 23.976 fps / 16:9 / High Profile 4.1
Аудио: Dolby Digital Audio Russian 5.1 / 48 kHz / 448 kbps | R5
Аудио: Dolby Digital Audio Russian 2.0 / 48 kHz / 192 kbps | Первый канал
Аудио: Dolby Digital Audio Russian 2.0 / 48 kHz / 192 kbps | дубляж
Аудио: Dolby Digital Audio Russian 2.0 / 48 kHz / 192 kbps | Сонькин
Аудио: DTS Audio Russian 5.1 / 48 kHz / 1509 kbps / 24-bit | Живов
Аудио: DTS Audio English 5.1 / 48 kHz / 1509 kbps / 24-bit

В ролях: Брекин Мейер, Шонн Уильям Скотт, Эми Смарт, Паоло Костанзо, DJ Куаллс, Том Грин, Рейчел Блэнчард, Энтони Рэпп, Фред Уорд, Энди Дик
Описание: Изменять своей девушке, прямо скажем, нехорошо! И уж тем более нехорошо записывать весь процесс измены на камеру. И просто непростительно, пусть даже по ошибке, отправлять пикантную видеозапись своей девушке в подарок.

Теперь спасти положение может только марш-бросок через всю Америку, дабы перехватить злополучную пленку раньше, чем она попадет в руки вашей зазнобы. Но не ждите, что все будет идти «как по маслу». Вас ждет дорожное приключение, по сравнению с которым поездка на американских горках - всего лишь игра в песочнице!

MI
Общее
Уникальный идентификатор : 212920919507532791329060967437974570813 (0xA02F13D4D9EADFBDB3BC24629F3B073D)
Полное имя : D:\Закачки\Дорожное приключение.mkv
Формат : Matroska
Размер файла : 9,85 Гбайт
Продолжительность : 1 ч. 34 м.
Общий поток : 15,0 Мбит/сек
Название фильма : Дорожное приключение.mkv
Дата кодирования : UTC 2012-05-28 22:57:22
Программа кодирования : mkvmerge v4.9.1 ('Ich will') сборка от Jul 11 2011 23:53:15
Библиотека кодирования : libebml v1.2.1 + libmatroska v1.1.1

Видео
Идентификатор : 1
Формат : AVC
Формат/Информация : Advanced Video Codec
Профиль формата : High@L4.1
Параметр CABAC формата : Да
Параметр ReFrames формата : 9 кадров
Идентификатор кодека : V_MPEG4/ISO/AVC
Продолжительность : 1 ч. 34 м.
Битрейт : 10,6 Мбит/сек
Ширина : 1280 пикс.
Высота : 720 пикс.
Соотношение сторон : 16:9
Частота кадров : 23,976 кадр/сек
Цветовое пространство : YUV
Подвыборка цветности : 4:2:0
Битовая глубина : 8 бит
Тип развёртки : Прогрессивная
Бит/(Пиксели*Кадры) : 0.481
Размер потока : 6,99 Гбайт (71%)
Библиотека кодирования : x264 core 124 r2197kMod 69a0443
Настройки программы : cabac=1 / ref=9 / deblock=1:-3:-3 / analyse=0x3:0x133 / me=umh / subme=11 / psy=1 / fade_compensate=0.00 / psy_rd=1.15:0.00 / mixed_ref=1 / me_range=48 / chroma_me=1 / trellis=2 / 8x8dct=1 / cqm=0 / deadzone=21,11 / fast_pskip=0 / chroma_qp_offset=-2 / threads=6 / sliced_threads=0 / nr=0 / decimate=0 / interlaced=0 / bluray_compat=0 / constrained_intra=0 / bframes=9 / b_pyramid=2 / b_adapt=2 / b_bias=0 / direct=3 / weightb=1 / open_gop=0 / weightp=2 / keyint=250 / keyint_min=23 / scenecut=40 / intra_refresh=0 / rc=crf / mbtree=0 / crf=17.0000 / qcomp=0.70 / qpmin=0 / qpmax=69 / qpstep=4 / ip_ratio=1.40 / pb_ratio=1.15 / aq=2:0.60
Язык : English

Аудио #1
Идентификатор : 2
Формат : AC-3
Формат/Информация : Audio Coding 3
Расширение режима : CM (complete main)
Идентификатор кодека : A_AC3
Продолжительность : 1 ч. 34 м.
Вид битрейта : Постоянный
Битрейт : 448 Кбит/сек
Каналы : 6 каналов
Расположение каналов : Front: L C R, Side: L R, LFE
Частота : 48,0 КГц
Битовая глубина : 16 бит
Метод сжатия : С потерями
Размер потока : 302 Мбайт (3%)
Заголовок : MVO [R5]
Язык : Russian

Аудио #2
Идентификатор : 3
Формат : AC-3
Формат/Информация : Audio Coding 3
Расширение режима : CM (complete main)
Идентификатор кодека : A_AC3
Продолжительность : 1 ч. 34 м.
Вид битрейта : Постоянный
Битрейт : 192 Кбит/сек
Каналы : 2 канала
Расположение каналов : Front: L R
Частота : 48,0 КГц
Битовая глубина : 16 бит
Метод сжатия : С потерями
Размер потока : 129 Мбайт (1%)
Заголовок : MVO [Первый канал]
Язык : Russian

Аудио #3
Идентификатор : 4
Формат : AC-3
Формат/Информация : Audio Coding 3
Расширение режима : CM (complete main)
Идентификатор кодека : A_AC3
Продолжительность : 1 ч. 34 м.
Вид битрейта : Постоянный
Битрейт : 192 Кбит/сек
Каналы : 2 канала
Расположение каналов : Front: L R
Частота : 48,0 КГц
Битовая глубина : 16 бит
Метод сжатия : С потерями
Размер потока : 129 Мбайт (1%)
Заголовок : Дубляж
Язык : Russian

Аудио #4
Идентификатор : 5
Формат : AC-3
Формат/Информация : Audio Coding 3
Расширение режима : CM (complete main)
Идентификатор кодека : A_AC3
Продолжительность : 1 ч. 34 м.
Вид битрейта : Постоянный
Битрейт : 192 Кбит/сек
Каналы : 2 канала
Расположение каналов : Front: L R
Частота : 48,0 КГц
Битовая глубина : 16 бит
Метод сжатия : С потерями
Размер потока : 129 Мбайт (1%)
Заголовок : AVO [Владимир Сонькин]
Язык : Russian

Аудио #5
Идентификатор : 6
Формат : DTS
Формат/Информация : Digital Theater Systems
Идентификатор кодека : A_DTS
Продолжительность : 1 ч. 34 м.
Вид битрейта : Постоянный
Битрейт : 1510 Кбит/сек
Каналы : 6 каналов
Расположение каналов : Front: L C R, Side: L R, LFE
Частота : 48,0 КГц
Битовая глубина : 24 бит
Метод сжатия : С потерями
Размер потока : 1017 Мбайт (10%)
Заголовок : AVO [Юрий Живов]
Язык : Russian

Аудио #6
Идентификатор : 7
Формат : DTS
Формат/Информация : Digital Theater Systems
Идентификатор кодека : A_DTS
Продолжительность : 1 ч. 34 м.
Вид битрейта : Постоянный
Битрейт : 1510 Кбит/сек
Каналы : 6 каналов
Расположение каналов : Front: L C R, Side: L R, LFE
Частота : 48,0 КГц
Битовая глубина : 24 бит
Метод сжатия : С потерями
Размер потока : 1017 Мбайт (10%)
Язык : English

Текст #1
Идентификатор : 8
Формат : UTF-8
Идентификатор кодека : S_TEXT/UTF8
Идентификатор кодека/Информация : UTF-8 Plain Text
Заголовок : R5
Язык : Russian

Текст #2
Идентификатор : 9
Формат : UTF-8
Идентификатор кодека : S_TEXT/UTF8
Идентификатор кодека/Информация : UTF-8 Plain Text
Заголовок : v2
Язык : Russian

Текст #3
Идентификатор : 10
Формат : UTF-8
Идентификатор кодека : S_TEXT/UTF8
Идентификатор кодека/Информация : UTF-8 Plain Text
Язык : English

Текст #4
Идентификатор : 11
Формат : UTF-8
Идентификатор кодека : S_TEXT/UTF8
Идентификатор кодека/Информация : UTF-8 Plain Text
Язык : English

Текст #5
Идентификатор : 12
Формат : UTF-8
Идентификатор кодека : S_TEXT/UTF8
Идентификатор кодека/Информация : UTF-8 Plain Text
Язык : Spanish

Текст #6
Идентификатор : 13
Формат : UTF-8
Идентификатор кодека : S_TEXT/UTF8
Идентификатор кодека/Информация : UTF-8 Plain Text
Язык : French

Текст #7
Идентификатор : 14
Формат : UTF-8
Идентификатор кодека : S_TEXT/UTF8
Идентификатор кодека/Информация : UTF-8 Plain Text
Язык : Portuguese

Меню
00:00:00.000 : en:Chapter 1
00:07:05.800 : en:Chapter 2
00:09:28.943 : en:Chapter 3
00:11:27.604 : en:Chapter 4
00:15:58.040 : en:Chapter 5
00:18:58.137 : en:Chapter 6
00:23:36.540 : en:Chapter 7
00:26:40.474 : en:Chapter 8
00:30:26.700 : en:Chapter 9
00:33:11.448 : en:Chapter 10
00:38:01.070 : en:Chapter 11
00:40:54.952 : en:Chapter 12
00:46:17.942 : en:Chapter 13
00:49:42.771 : en:Chapter 14
00:53:18.237 : en:Chapter 15
00:58:22.499 : en:Chapter 16
01:02:17.692 : en:Chapter 17
01:06:10.675 : en:Chapter 18
01:08:17.760 : en:Chapter 19
01:11:37.710 : en:Chapter 20
01:15:34.947 : en:Chapter 21
01:20:32.453 : en:Chapter 22
01:26:15.462 : en:Chapter 23
01:30:08.194 : en:Chapter 24

Свернуть

Скриншоты
ИзображениеИзображениеИзображениеИзображениеИзображениеИзображение
Свернуть
Не в сети
Профиль  
Начать новую темуОтветить на тему  [ 1 сообщение ] 
Вы не можете начинать темы
Вы не можете отвечать на сообщения
Вы не можете редактировать свои сообщения
Вы не можете удалять свои сообщения