Правила форума

  • В этом разделе создание новых тем Запрещено.
  • Для создания новых тем пользуйтесь Корневым разделом DVD и HD фильмы.
Начать новую темуОтветить на тему  [ 1 сообщение ] 
Торрент файл
Размер: 4.67 GB • Зарегистрирован: 4 года 10 месяцев • Статус: Проверено
Скачан: 46 раз • Желающих скачать: 0 • Поблагодарили: 11 раз
 Раздают: 0  |  0 KB/s  ]   Качают: 0  |  0 KB/s  ] 
 Полного источника не было 3 года 1 месяц 
Сообщения
 Добавлено: 2012-02-03 21:13
Top-seeder
Аватара пользователя
Стаж: 9 лет
Сообщений: 1399
Спасибок: 28652
Лайков: 8
Дорожное приключение / Road Trip

Изображение

Год выпуска: 2000
Страна: США
Жанр: комедия, приключения
Продолжительность: 01:33:39
Перевод: Профессиональный (многоголосый, закадровый)
Русские субтитры: нет

Режиссер: Тодд Филлипс

В ролях: Брекин Мейер, Шонн Уильям Скотт, Паоло Костанзо, DJ Куаллс, Том Грин, Рэйчел Бланчард, Энтони Рэпп, Фред Уорд, Энди Дик

Описание: Изменять своей девушке, прямо скажем, нехорошо! И уж тем более нехорошо записывать весь процесс измены на камеру. И просто непростительно, пусть даже по ошибке, отправлять пикантную видеозапись своей девушке в подарок.
Теперь спасти положение может только марш-бросок через всю Америку, дабы перехватить злополучную пленку раньше, чем она попадет в руки вашей зазнобы. Но не ждите, что все будет идти «как по маслу». Вас ждет дорожное приключение, по сравнению с которым поездка на американских горках — всего лишь игра в песочнице!

Качество: HDTVRip
Формат: MKV
Видео кодек: H.264
Аудио кодек: AC3
Видео: 1280x720, x264, 23.976 fps, ~6295 kbps
Аудио: Русский AC3, 6ch 448 Kbps; Английский AC3, 6ch 384 Kbps

MI
Общее
Уникальный идентификатор : 180000118957625080312260845533799481854 (0x876AC30C7E2A29CB99E6E379F43D81FE)
Полное имя : D:\Закачки\Дорожное приключение.mkv
Формат : Matroska
Размер файла : 4,67 Гбайт
Продолжительность : 1 ч. 33 м.
Общий поток : 7130 Кбит/сек
Название фильма : -=HANSMER=- (HQ-Films.ws)
Дата кодирования : UTC 2008-12-22 18:35:54
Программа кодирования : mkvmerge v2.4.0 ('Fumbling Towards Ecstasy') built on Oct 11 2008 20:13:15
Библиотека кодирования : libebml v0.7.7 + libmatroska v0.8.1

Видео
Идентификатор : 1
Формат : AVC
Формат/Информация : Advanced Video Codec
Профиль формата : High@L4.1
Параметр CABAC формата : Да
Параметр ReFrames формата : 6 кадров
Идентификатор кодека : V_MPEG4/ISO/AVC
Продолжительность : 1 ч. 33 м.
Битрейт : 6295 Кбит/сек
Ширина : 1280 пикс.
Высота : 720 пикс.
Соотношение сторон : 16:9
Частота кадров : 23,976 кадр/сек
Цветовое пространство : YUV
Подвыборка цветности : 4:2:0
Битовая глубина : 8 бит
Тип развёртки : Прогрессивная
Бит/(Пиксели*Кадры) : 0.285
Размер потока : 4,03 Гбайт (86%)
Заголовок : Road.Trip.2000.720p.HDTV.x264-DON
Библиотека кодирования : x264 core 65 r1057M 5f8a149
Настройки программы : cabac=1 / ref=6 / deblock=1:-2:-1 / analyse=0x3:0x133 / me=umh / subme=9 / psy_rd=0.8:0.0 / mixed_ref=1 / me_range=32 / chroma_me=1 / trellis=0 / 8x8dct=1 / cqm=2 / deadzone=6,4 / chroma_qp_offset=-2 / threads=6 / nr=0 / decimate=1 / mbaff=0 / bframes=16 / b_pyramid=0 / b_adapt=1 / b_bias=0 / direct=1 / wpredb=1 / keyint=250 / keyint_min=25 / scenecut=40(pre) / rc=2pass / bitrate=6295 / ratetol=1.0 / qcomp=0.60 / qpmin=10 / qpmax=51 / qpstep=4 / cplxblur=20.0 / qblur=0.5 / ip_ratio=1.40 / pb_ratio=1.30 / aq=1:0.80
Язык : English

Аудио #1
Идентификатор : 2
Формат : AC-3
Формат/Информация : Audio Coding 3
Расширение режима : CM (complete main)
Идентификатор кодека : A_AC3
Продолжительность : 1 ч. 33 м.
Вид битрейта : Постоянный
Битрейт : 448 Кбит/сек
Каналы : 6 каналов
Расположение каналов : Front: L C R, Side: L R, LFE
Частота : 48,0 КГц
Битовая глубина : 16 бит
Метод сжатия : С потерями
Задержка видео : 160 мс.
Размер потока : 300 Мбайт (6%)
Язык : Russian

Аудио #2
Идентификатор : 3
Формат : AC-3
Формат/Информация : Audio Coding 3
Расширение режима : CM (complete main)
Идентификатор кодека : A_AC3
Продолжительность : 1 ч. 33 м.
Вид битрейта : Постоянный
Битрейт : 384 Кбит/сек
Каналы : 6 каналов
Расположение каналов : Front: L C R, Side: L R, LFE
Частота : 48,0 КГц
Битовая глубина : 16 бит
Метод сжатия : С потерями
Задержка видео : 160 мс.
Размер потока : 257 Мбайт (5%)
Язык : English

Свернуть

Скриншоты
ИзображениеИзображениеИзображениеИзображениеИзображениеИзображение
Свернуть
Не в сети
Профиль  
Начать новую темуОтветить на тему  [ 1 сообщение ] 
Вы не можете начинать темы
Вы не можете отвечать на сообщения
Вы не можете редактировать свои сообщения
Вы не можете удалять свои сообщения