Правила форума

  • В этом разделе создание новых тем Запрещено.
  • Для создания новых тем пользуйтесь Корневым разделом DVD и HD фильмы.
Начать новую темуОтветить на тему  [ Сообщений: 4 ] 
Торрент файл
Размер: 14.35 GB • Зарегистрирован: 3 года 8 месяцев • Статус: Проверено
Скачан: 133 раза • Желающих скачать: 0 • Поблагодарили: 36 раз
 Раздают: 0  |  0 KB/s  ]   Качают: 0  |  0 KB/s  ] 
 Полного источника не было 2 года 4 месяца 
Сообщения
 Добавлено: 2013-03-12 20:04
Аватара пользователя
Стаж: 5 лет 4 месяца
Возраст: 26
Сообщений: 1658
Спасибок: 45803
Лайков: 69
Доспехи Бога 3: Миссия Зодиак / Chinese Zodiac


«Охота за сокровищами началась.»

Изображение
Год выпуска: 2012
Страна: Изображение
Жанр: Боевик, комедия, приключения.
Продолжительность: 02:02:56
Перевод: Дублированный[лицензия]


Режиссёр: Джеки Чан

Сценарий: Джеки Чан, Фрэнки Чан, Эдвард Танг , Стэнли Тонг

Продюсер: Джеки Чан, Стэнли Тонг, Барби Танг, Альберт Енг , Бретт Рэтнер

Оператор: Джеки Чан, Ман-Чинг Нг

Композитор: Рок Чен, Натан Ванг

Xудожник: Джеки Чан

В ролях: Джеки Чан , Квон Сан У, Ляо Фань, Синтхун Яо, Чжан Ланьсинь, Лаура Вейссбеккер, Оливер Платт, Эмили Гуйо, Кэйтлин Дешель, Кенни Джи.

Описание: Главный герой истории — работающий по всему миру охотник за сокровищами Джей Си по кличке Ястреб. Известный антиквар предлагает ему отыскать шесть редких статуэток в виде голов животных. В свое время эти бронзовые скульптуры входили в набор из 12-ти предметов, олицетворявших знаки зодиака. Фигурки украшали фонтан легендарного Летнего дворца на окраине Пекина. В 1860 году величественное сооружение было разграблено и разрушено англо-французскими войсками на исходе Второй опиумной войны, а статуэтки безвозвратно утеряны.
.



Изображение



Сборы в мире : $161 342 194
Сборы в России: $4 329 428

Мировая премьера:12 декабря 2012.
Российский прокат:31 января 2013, «UPI», «Премиум Фильм»3D

Релиз на DVD:14 марта 2013, «CP Дистрибуция».
Релиз на Blu-Ray:14 марта 2013, «CP Дистрибуция».


Качество: BDRip (1080p) R5
Формат: MKV
Видео: MPEG-4 AVC, 12.7 Мбит/с, 1920x804
Аудио: Русский (AC3, 6 ch, 640 Кбит/с), китайский (DTS, 6 ch, 1510 Кбит/с), английские (AC3, 6 ch, 640 Кбит/с)
Субтитры: Русские, английские





MediaInfo
Общее
Уникальный идентификатор : 198150803059323377306165537623932663146 (0x951274DDF2457620A8702898D19FF56A)
Полное имя : D:\Фильмы и сериалы\Chinese.Zodiac.BDRip1080p.mkv
Формат : Matroska
Версия формата : Version 4 / Version 2
Размер файла : 14,4 Гбайт
Продолжительность : 2 ч. 2 м.
Общий поток : 16,7 Мбит/сек
Дата кодирования : UTC 2013-03-12 01:52:16
Программа кодирования : mkvmerge v6.0.0 ('Coming Up For Air') built on Jan 20 2013 09:52:00
Библиотека кодирования : libebml v1.3.0 + libmatroska v1.4.0

Видео
Идентификатор : 1
Формат : AVC
Формат/Информация : Advanced Video Codec
Профиль формата : High@L4.1
Параметр CABAC формата : Да
Параметр ReFrames формата : 5 кадров
Идентификатор кодека : V_MPEG4/ISO/AVC
Продолжительность : 2 ч. 2 м.
Битрейт : 12,7 Мбит/сек
Ширина : 1920 пикселей
Высота : 804 пикселя
Соотношение сторон : 2,40:1
Режим частоты кадров : Постоянный
Частота кадров : 24,000 кадра/сек
Цветовое пространство : YUV
Субдискретизация насыщенности : 4:2:0
Битовая глубина : 8 бит
Тип развёртки : Прогрессивная
Бит/(Пиксели*Кадры) : 0.343
Размер потока : 10,9 Гбайт (76%)
Библиотека кодирования : x264 core 129 r2245 bc13772
Настройки программы : cabac=1 / ref=5 / deblock=1:-3:-3 / analyse=0x3:0x113 / me=umh / subme=11 / psy=1 / psy_rd=1.02:0.05 / mixed_ref=1 / me_range=64 / chroma_me=1 / trellis=2 / 8x8dct=1 / cqm=0 / deadzone=21,11 / fast_pskip=0 / chroma_qp_offset=-2 / threads=12 / lookahead_threads=2 / sliced_threads=0 / nr=0 / decimate=1 / interlaced=0 / bluray_compat=0 / constrained_intra=0 / bframes=5 / b_pyramid=2 / b_adapt=2 / b_bias=0 / direct=1 / weightb=1 / open_gop=0 / weightp=2 / keyint=230 / keyint_min=23 / scenecut=40 / intra_refresh=0 / rc_lookahead=60 / rc=crf / mbtree=0 / crf=19.0 / qcomp=0.70 / qpmin=0 / qpmax=69 / qpstep=4 / vbv_maxrate=50000 / vbv_bufsize=62500 / crf_max=0.0 / nal_hrd=none / ip_ratio=1.40 / pb_ratio=1.30 / aq=2:0.90
Язык : English
Default : Да
Forced : Нет
Основные цвета : BT.709
Характеристики трансфера : BT.709
Коэффициенты матрицы : BT.709

Аудио #1
Идентификатор : 2
Формат : DTS
Формат/Информация : Digital Theater Systems
Режим : 16
Параметр Endianness формата : Big
Идентификатор кодека : A_DTS
Продолжительность : 2 ч. 2 м.
Вид битрейта : Постоянный
Битрейт : 1509 Кбит/сек
Каналы : 6 каналов
Расположение каналов : Front: L C R, Side: L R, LFE
Частота : 48,0 КГц
Битовая глубина : 24 бит
Метод сжатия : С потерями
Размер потока : 1,30 Гбайт (9%)
Заголовок : RUS DUB (DTS)
Язык : Russian
Default : Да
Forced : Нет

Аудио #2
Идентификатор : 3
Формат : AC-3
Формат/Информация : Audio Coding 3
Расширение режима : CM (complete main)
Параметр Endianness формата : Big
Идентификатор кодека : A_AC3
Продолжительность : 2 ч. 2 м.
Вид битрейта : Постоянный
Битрейт : 640 Кбит/сек
Каналы : 6 каналов
Расположение каналов : Front: L C R, Side: L R, LFE
Частота : 48,0 КГц
Битовая глубина : 16 бит
Метод сжатия : С потерями
Размер потока : 563 Мбайт (4%)
Заголовок : RUS DUB (AC3)
Язык : Russian
Default : Нет
Forced : Нет

Аудио #3
Идентификатор : 4
Формат : DTS
Формат/Информация : Digital Theater Systems
Режим : 16
Параметр Endianness формата : Big
Идентификатор кодека : A_DTS
Продолжительность : 2 ч. 2 м.
Вид битрейта : Постоянный
Битрейт : 1509 Кбит/сек
Каналы : 6 каналов
Расположение каналов : Front: L C R, Side: L R, LFE
Частота : 48,0 КГц
Битовая глубина : 24 бит
Метод сжатия : С потерями
Размер потока : 1,30 Гбайт (9%)
Язык : Chinese
Default : Нет
Forced : Нет

Текст #1
Идентификатор : 5
Формат : UTF-8
Идентификатор кодека : S_TEXT/UTF8
Идентификатор кодека/Информация : UTF-8 Plain Text
Язык : Russian
Default : Да
Forced : Нет

Текст #2
Идентификатор : 6
Формат : UTF-8
Идентификатор кодека : S_TEXT/UTF8
Идентификатор кодека/Информация : UTF-8 Plain Text
Язык : English
Default : Нет
Forced : Нет

Меню
00:00:00.000 : en:00:00:00.000
00:11:23.208 : en:00:11:23.208
00:18:11.542 : en:00:18:11.542
00:31:52.583 : en:00:31:52.583
00:41:46.000 : en:00:41:46.000
00:50:53.958 : en:00:50:53.958
01:04:57.083 : en:01:04:57.083
01:10:09.292 : en:01:10:09.292
01:20:00.292 : en:01:20:00.292
01:27:49.500 : en:01:27:49.500
01:41:28.667 : en:01:41:28.667
01:53:58.000 : en:01:53:58.000


Свернуть

Трейлер
Свернуть

Скриншоты
Изображение
Изображение
Изображение
Свернуть
_________________
S.T.A.L.K.E.R.: Lost Alpha
Не в сети
Профиль  
 Добавлено: 2013-03-12 20:13 (спустя 9 минут)
Аватара пользователя
Стаж: 6 лет 1 месяц
Сообщений: 55
Спасибок: 17
Лайков: 1
:sh_ok:
Не в сети
Профиль  
 Добавлено: 2013-03-12 20:54 (спустя 40 минут)
Аватара пользователя
Стаж: 3 года 9 месяцев
Сообщений: 45
Спасибок: 60
За сторание джеки можно памятник при жизни ставить немногие актеры трюки сами исполняют а в таком возрасте так вообще еденицы.да фильмец на 7,но смотрел с удовольствием,ни сам сюжет а больше на исполнение трюков джеки :co_ol:
Не в сети
Профиль  
 Добавлено: 2013-03-14 20:03 (спустя 1 день 23 часа)
Аватара пользователя
Стаж: 5 лет 4 месяца
Возраст: 26
Сообщений: 1658
Спасибок: 45803
Лайков: 69
VladislavSuldin
:co_ol:
_________________
S.T.A.L.K.E.R.: Lost Alpha
Не в сети
Профиль  
Начать новую темуОтветить на тему  [ Сообщений: 4 ] 
Вы не можете начинать темы
Вы не можете отвечать на сообщения
Вы не можете редактировать свои сообщения
Вы не можете удалять свои сообщения