Правила форума

  • В этом разделе создание новых тем Запрещено.
  • Для создания новых тем пользуйтесь Корневым разделом DVD и HD фильмы.
Начать новую темуОтветить на тему  [ Сообщений: 2 ] 
Торрент файл
Размер: 8.03 GB • Зарегистрирован: 1 год 10 месяцев • Статус: Проверено
Скачан: 413 раз • Желающих скачать: 0 • Поблагодарили: 97 раз
 Раздают: 1  |  0 KB/s  ]   Качают: 0  |  0 KB/s  ] 
Сообщения
 Добавлено: 2015-01-24 21:22
Top-releaser
Аватара пользователя
Стаж: 8 лет 7 месяцев
Сообщений: 1286
Спасибок: 3420
Лайков: 7
Изображение
Дракула | Dracula Untold


«Легенда обретёт бессмертие»


Год выпуска | 2014
Страна | США
Жанр | ужасы, фэнтези, боевик, драма, военный

Продолжительность | 01:32:08
Перевод | Профессиональный (полное дублирование)
Режиссер | Гари Шор
Сценарий | Мэтт Сазама, Берк Шарплесс, Брэм Стокер
Продюсер | Майкл Де Лука, Джозеф М. Карачиоло мл., Джон Дж. Джашни, Алисса Филлипс, Томас Тулл
Оператор | Джон Шварцман
Композитор | Рамин Джавади

В ролях | Люк Эванс, Сара Гадон, Доминик Купер, Арт Паркинсон, Чарльз Дэнс, Дайармейд Мерта, Пол Кэй, Уильям Хьюстон, Ной Хантли, Ронан Вайберт, Зэк МакГоун, Фердинанд Кингсли и др.
Дублёры | Анатолий Белый, Татьяна Шитова, Александр Гаврилин, Илья Исаев, Александр Головчанский, Владимир Антипов, Станислав Тикунов и др.
Описание | Влад Дракула был величайшим правителем, доблестным воином и страстным мужчиной. Но судьба свела его с врагом, коварство которого не знало границ. И тогда Дракула заключил сделку - нечеловеческая сила в обмен на самую малость - бессмертную душу...
kinopoisk.ru | 6.490 (40 477)
Бюджет | $70 000 000
Мировая премьера | 1 октября 2014
Знаете ли Вы, что...
  • Изначально Саманта Баркс была взята на роль Бабы-яги, также роль в фильме получил Чарли Кокс. Но в итоге все сцены с участием их персонажей были удалены.
  • Съемки, начавшиеся 5 августа 2013 года, проходили в Северной Ирландии. 5 и 6 августа они проходили в парке Ро Вэлли Кантри.
  • На роль, которая досталась Люку Эвансу, рассматривался Сэм Уортингтон.
  • Эбби Корниш отказалась от предложения исполнить главную женскую роль.
  • еще 1 факт
  • В одном из эпизодов князь Дракула и султан Мехмед пьют кофе. Влад Дракула жил в XV веке, а кофе появился в Османской империи в качестве напитка только в XVI веке.
  • После того как Влад побеждает Мехмеда, Влад кусает его и пьет его кровь. Но затем, когда Мехмед падает на землю, очень хорошо видно его горло, на котором нет ни крови, ни следов от укуса.
Свернуть

Качество | BDRip 1080p
Контейнер | MKV
Видео | AVC, 1920x800 (2.40:1), 10200 kbps, 23,976 fps, 0,277 bit/pixel
Аудио №1 | русский, DTS, 755 kbps, CBR, 6 channels, 24 bit
Аудио №2 | английский, DTS, 1510 kbps, CBR, 6 channels, 24 bit

MediaInfo
General
Unique ID : 209421882712005304799906246057170918112 (0x9D8D2FFF822CDD58B8EE264880E15AE0)
Complete name : D:\Видео\Dracula.Untold.2014.BDRip.1080p.BLUEBIRD.mkv
Format : Matroska
Format version : Version 4 / Version 2
File size : 8.03 GiB
Duration : 1h 32mn
Overall bit rate : 12.5 Mbps
Movie name : BRH@BlueBird
Encoded date : UTC 2015-01-23 19:27:08
Writing application : mkvmerge v7.4.0 ('Circles') 64bit built on Dec 12 2014 12:19:56
Writing library : libebml v1.3.0 + libmatroska v1.4.1
_STATISTICS_WRITING_APP : mkvmerge v7.4.0 ('Circles') 64bit built on Dec 12 2014 12:19:56
_STATISTICS_WRITING_DATE_UTC : 2015-01-23 19:27:08
_STATISTICS_TAGS : BPS DURATION NUMBER_OF_FRAMES NUMBER_OF_BYTES
DURATION : 01:32:08.406000000
NUMBER_OF_FRAMES : 518288
NUMBER_OF_BYTES : 530726912

Video
ID : 1
Format : AVC
Format/Info : Advanced Video Codec
Format profile : High@L4.1
Format settings, CABAC : Yes
Format settings, ReFrames : 5 frames
Codec ID : V_MPEG4/ISO/AVC
Duration : 1h 32mn
Bit rate : 10.2 Mbps
Width : 1 920 pixels
Height : 800 pixels
Display aspect ratio : 2.40:1
Frame rate : 23.976 fps
Color space : YUV
Chroma subsampling : 4:2:0
Bit depth : 8 bits
Scan type : Progressive
Bits/(Pixel*Frame) : 0.277
Stream size : 6.41 GiB (80%)
Writing library : x264 core 144 r2525 40bb568
Encoding settings : cabac=1 / ref=5 / deblock=1:-3:-2 / analyse=0x3:0x113 / me=umh / subme=11 / psy=1 / psy_rd=1.00:0.00 / mixed_ref=1 / me_range=32 / chroma_me=1 / trellis=2 / 8x8dct=1 / cqm=0 / deadzone=21,11 / fast_pskip=1 / chroma_qp_offset=-2 / threads=12 / lookahead_threads=1 / sliced_threads=0 / nr=0 / decimate=1 / interlaced=0 / bluray_compat=0 / constrained_intra=0 / bframes=11 / b_pyramid=2 / b_adapt=1 / b_bias=0 / direct=2 / weightb=1 / open_gop=0 / weightp=2 / keyint=240 / keyint_min=23 / scenecut=40 / intra_refresh=0 / rc_lookahead=40 / rc=2pass / mbtree=1 / bitrate=10200 / ratetol=1.0 / qcomp=0.60 / qpmin=0 / qpmax=69 / qpstep=4 / cplxblur=20.0 / qblur=0.5 / vbv_maxrate=62500 / vbv_bufsize=78125 / nal_hrd=none / filler=0 / ip_ratio=1.40 / aq=1:1.00
Language : English
Default : Yes
Forced : No
_STATISTICS_WRITING_APP : mkvmerge v7.4.0 ('Circles') 64bit built on Dec 12 2014 12:19:56
_STATISTICS_WRITING_DATE_UTC : 2015-01-23 19:27:08
_STATISTICS_TAGS : BPS DURATION NUMBER_OF_FRAMES NUMBER_OF_BYTES
DURATION : 01:32:08.398000000
NUMBER_OF_FRAMES : 132549
NUMBER_OF_BYTES : 7045913833

Audio #1
ID : 2
Format : DTS
Format/Info : Digital Theater Systems
Codec ID : A_DTS
Duration : 1h 32mn
Bit rate mode : Constant
Bit rate : 755 Kbps
Channel(s) : 6 channels
Channel positions : Front: L C R, Side: L R, LFE
Sampling rate : 48.0 KHz
Bit depth : 24 bits
Compression mode : Lossy
Stream size : 497 MiB (6%)
Language : Russian
Default : Yes
Forced : No

Audio #2
ID : 3
Format : DTS
Format/Info : Digital Theater Systems
Codec ID : A_DTS
Duration : 1h 32mn
Bit rate mode : Constant
Bit rate : 1 510 Kbps
Channel(s) : 6 channels
Channel positions : Front: L C R, Side: L R, LFE
Sampling rate : 48.0 KHz
Bit depth : 24 bits
Compression mode : Lossy
Stream size : 995 MiB (12%)
Language : English
Default : No
Forced : No

Text #1
ID : 4
Format : UTF-8
Codec ID : S_TEXT/UTF8
Codec ID/Info : UTF-8 Plain Text
Title : Forced
Language : Russian
Default : Yes
Forced : No

Text #2
ID : 5
Format : UTF-8
Codec ID : S_TEXT/UTF8
Codec ID/Info : UTF-8 Plain Text
Title : Full
Language : Russian
Default : No
Forced : No

Menu
00:00:00.000 : en:00:00:00.000
00:04:07.289 : en:00:04:07.289
00:07:20.565 : en:00:07:20.565
00:11:32.817 : en:00:11:32.817
00:16:30.698 : en:00:16:30.698
00:22:53.664 : en:00:22:53.664
00:30:23.447 : en:00:30:23.447
00:34:16.763 : en:00:34:16.763
00:38:57.043 : en:00:38:57.043
00:43:00.369 : en:00:43:00.369
00:47:03.738 : en:00:47:03.738
00:53:16.735 : en:00:53:16.735
00:57:39.831 : en:00:57:39.831
01:00:47.310 : en:01:00:47.310
01:04:30.033 : en:01:04:30.033
01:09:12.190 : en:01:09:12.190
01:12:47.613 : en:01:12:47.613
01:17:11.877 : en:01:17:11.877
01:21:52.658 : en:01:21:52.658
01:25:02.556 : en:01:25:02.556
Свернуть

Скриншоты

Изображение

Изображение

Изображение

Изображение

Изображение
Свернуть
 bazanoff и < WwW-000-Rus > нравится это.
Не в сети
Профиль  
 Добавлено: 2015-01-28 18:24 (спустя 3 дня)
Аватара пользователя
Стаж: 4 года 10 месяцев
Возраст: 29
Сообщений: 86
Лайков: 1
спасибо но просто долби джтл а не ДТС
Не в сети
Профиль  
Начать новую темуОтветить на тему  [ Сообщений: 2 ] 
Вы не можете начинать темы
Вы не можете отвечать на сообщения
Вы не можете редактировать свои сообщения
Вы не можете удалять свои сообщения