Правила форума

  • В этом разделе создание новых тем Запрещено.
  • Для создания новых тем пользуйтесь Корневым разделом DVD и HD фильмы.
Начать новую темуОтветить на тему  [ Сообщений: 3 ] 
Торрент файл
Размер: 10.4 GB • Зарегистрирован: 4 года 11 месяцев • Статус: Проверено
Скачан: 80 раз • Желающих скачать: 0 • Поблагодарили: 28 раз
 Раздают: 0  |  0 KB/s  ]   Качают: 0  |  0 KB/s  ] 
 Полного источника не было 2 года 9 месяцев 
Сообщения
 Добавлено: 2011-12-09 19:59
Модератор релиз-группы
Аватара пользователя
Стаж: 9 лет 1 месяц
Возраст: 97
Сообщений: 11659
Спасибок: 6532
Лайков: 269
Драйв / Drive

Изображение

Год выпуска: 2011
Страна: США
Продолжительность: 01:40:49
Жанр: боевик, триллер, драма, криминал
Перевод: Дублированный [ЛИЦЕНЗИЯ]

Режиссер: Николас Виндинг Рёфн

В ролях: Райан Гослинг, Кэри Маллиган, Брайан Крэнстон, Альберт Брукс, Оскар Айзек, Кристина Хендрикс, Рон Перлман, Каден Леос, Джефф Вульф, Джеймс Бибери и др.

Описание: Великолепный гонщик — при свете дня он выполняет каскадерские трюки на съёмочных площадках Голливуда, а по ночам ведет рискованную игру. Но один опасный контракт — и за его жизнь назначена награда. Теперь, чтобы остаться в живых и спасти свою очаровательную соседку, он должен делать то, что умеет лучше всего — виртуозно уходить от погони…

Изображение
Качество: Blu-Ray Remux
Формат: mkv
Видео: MPEG-4 AVC Video 14390 kbps 1080p / 23,976 fps / 16:9 / High Profile 4.1
Аудио 1: Russian AC3 5.1 / 48 kHz / 384 kbps / 16-bit / Front: L C R, Side: L R, LFE


скриншоты
Изображение

Изображение

Изображение
Свернуть
Mi
Format : Matroska
Format version : Version 2
File size : 10.4 GiB
Duration : 1h 40mn
Overall bit rate mode : Variable
Overall bit rate : 14.8 Mbps
Encoded date : UTC 2011-12-09 16:49:47
Writing application : mkvmerge v5.1.0 ('And so it goes') built on Nov 28 2011 23:58:28
Writing library : libebml v1.2.3 + libmatroska v1.3.0

Video
ID : 1
Format : AVC
Format/Info : Advanced Video Codec
Format profile : High@L4.1
Format settings, CABAC : Yes
Format settings, ReFrames : 4 frames
Codec ID : V_MPEG4/ISO/AVC
Duration : 1h 40mn
Bit rate mode : Variable
Bit rate : 14.1 Mbps
Maximum bit rate : 30.0 Mbps
Width : 1 920 pixels
Height : 1 080 pixels
Display aspect ratio : 16:9
Frame rate : 23.976 fps
Standard : NTSC
Color space : YUV
Chroma subsampling : 4:2:0
Bit depth : 8 bits
Scan type : Progressive
Bits/(Pixel*Frame) : 0.284
Stream size : 9.93 GiB (95%)
Color primaries : BT.709-5, BT.1361, IEC 61966-2-4, SMPTE RP177
Transfer characteristics : BT.709-5, BT.1361
Matrix coefficients : BT.709-5, BT.1361, IEC 61966-2-4 709, SMPTE RP177

Audio
ID : 2
Format : AC-3
Format/Info : Audio Coding 3
Mode extension : CM (complete main)
Codec ID : A_AC3
Duration : 1h 40mn
Bit rate mode : Constant
Bit rate : 384 Kbps
Channel(s) : 6 channels
Channel positions : Front: L C R, Side: L R, LFE
Sampling rate : 48.0 KHz
Bit depth : 16 bits
Compression mode : Lossy
Stream size : 277 MiB (3%)

Свернуть
_________________
Изображение
Не в сети
Профиль  
 Добавлено: 2012-02-08 14:37 (спустя 1 месяц 29 дней)
Аватара пользователя
Стаж: 7 лет
Возраст: 33
Сообщений: 6
Полный отстой!!! реально потраченное время пожалел :(
Не в сети
Профиль  
 Добавлено: 2013-06-18 13:03 (спустя 1 год 4 месяца)
Стаж: 5 лет 3 месяца
Сообщений: 3
Посмотрел вчера в инете... Без вопросов добавляю себе в коллекцию. Большое спасибо. Раздай)
Не в сети
Профиль  
Начать новую темуОтветить на тему  [ Сообщений: 3 ] 
Вы не можете начинать темы
Вы не можете отвечать на сообщения
Вы не можете редактировать свои сообщения
Вы не можете удалять свои сообщения