Правила форума

  • В этом разделе создание новых тем Запрещено.
  • Для создания новых тем пользуйтесь Корневым разделом DVD и HD фильмы.
Начать новую темуОтветить на тему  [ Сообщений: 2 ] 
Торрент файл
Размер: 17.23 GB • Зарегистрирован: 5 лет • Статус: Проверено
Скачан: 57 раз • Желающих скачать: 0 • Поблагодарили: 15 раз
 Раздают: 0  |  0 KB/s  ]   Качают: 0  |  0 KB/s  ] 
 Полного источника не было 1 месяц 16 дней 
Сообщения
 Добавлено: 2011-11-18 22:17
Руководитель релиз-группы
Аватара пользователя
Стаж: 8 лет 6 месяцев
Возраст: 25
Сообщений: 7578
Спасибок: 51910
Лайков: 14
Древо жизни

The Tree of Life


Изображение


Год выпуска: 2011
Страна: США
Жанр: Драма
Продолжительность: 02:18:54
Перевод: Профессиональный (полное дублирование) Лицензия
Режиссер: Терренс Малик
В ролях: Брэд Питт, Шон Пенн, Джессика Честейн, Хантер МакКракен, Ларами Эпплер, Тай Шеридан, Фиона Шоу, Джессика Фусельер, Николас Гонда, Уилл Уоллес
Описание: Мы наблюдаем за развитием 11-летнего Джека, одного из трех братьев. Поначалу ребенку все кажется чудесным. Глазами своей души он наблюдает за поступками мамы. Она представляет собой любовь и милосердие, в то время как отец пытается научить сына, что в реальном мире на первое место необходимо всегда ставить себя. Каждый родитель старается переманить Джека на свою сторону, и он должен примириться с их притязаниями. Действительность становится мрачнее, когда главному герою в первый раз приходится столкнуться с болью, страданиями и смертью. Некогда абсолютно ясный мир превращается в лабиринт.
Качество: BDRip 1080p
Формат: MKV
Видео: AVC,1920x1040,15500 kbps Kbps,23.976 fps
Аудио: Russian: 48 kHz, DTS, 3/2 (L,C,R,l,r) + LFE ch, ~768.00 kbps
Аудио: English: 48 kHz, DTS, 3/2 (L,C,R,l,r) + LFE ch, ~1536.00 kbps avg
"MediaInfo"

General
 Unique ID : 174468557758789496583745959391762412275 (0x83416C067FCEC8F5AEDE6F2C429972F3)
 Complete name : D:\Downloads\Видео\Рипы\The Tree of Life 2011 BluRay 1080p DTS x264-CHD.mkv
 Format : Matroska
 File size : 17.2 GiB
 Duration : 2h 18mn
 Overall bit rate : 17.8 Mbps
 Movie name : -Talian-
 Encoded date : UTC 2011-11-17 08:33:18
 Writing application : mkvmerge v3.3.0 ('Language') сборка от May 14 2010 17:11:50
 Writing library : libebml v0.8.0 + libmatroska v0.9.0

Video
 ID : 1
 Format : AVC
 Format/Info : Advanced Video Codec
 Format profile : High@L4.1
 Format settings, CABAC : Yes
 Format settings, ReFrames : 4 frames
 Codec ID : V_MPEG4/ISO/AVC
 Duration : 2h 18mn
 Bit rate : 15.5 Mbps
 Width : 1 920 pixels
 Height : 1 040 pixels
 Display aspect ratio : 16:9
 Frame rate : 23.976 fps
 Color space : YUV
 Chroma subsampling : 4:2:0
 Bit depth : 8 bits
 Scan type : Progressive
 Bits/(Pixel*Frame) : 0.324
 Stream size : 14.7 GiB (85%)
 Title : The Tree of Life 2011 BluRay 1080p DTS x264-CHD
 Writing library : x264 core 116 r2074 2641b9e
 Encoding settings : cabac=1 / ref=4 / deblock=1:-3:-3 / analyse=0x3:0x113 / me=umh / subme=11 / psy=1 / psy_rd=1.05:0.10 / mixed_ref=1 / me_range=48 / chroma_me=1 / trellis=2 / 8x8dct=1 / cqm=2 / deadzone=21,11 / fast_pskip=0 / chroma_qp_offset=-2 / threads=8 / sliced_threads=0 / nr=0 / decimate=1 / interlaced=0 / bluray_compat=0 / constrained_intra=0 / bframes=6 / b_pyramid=2 / b_adapt=2 / b_bias=0 / direct=3 / weightb=1 / open_gop=0 / weightp=2 / keyint=250 / keyint_min=23 / scenecut=40 / intra_refresh=0 / rc_lookahead=50 / rc=2pass / mbtree=1 / bitrate=15495 / ratetol=1.0 / qcomp=0.70 / qpmin=1 / qpmax=63 / qpstep=4 / cplxblur=20.0 / qblur=0.5 / vbv_maxrate=45000 / vbv_bufsize=40000 / nal_hrd=none / ip_ratio=1.40 / aq=2:0.90
 Language : English

Audio #1
 ID : 2
 Format : DTS
 Format/Info : Digital Theater Systems
 Codec ID : A_DTS
 Duration : 2h 18mn
 Bit rate mode : Constant
 Bit rate : 755 Kbps
 Channel(s) : 6 channels
 Channel positions : Front: L C R, Side: L R, LFE
 Sampling rate : 48.0 KHz
 Bit depth : 24 bits
 Compression mode : Lossy
 Stream size : 750 MiB (4%)
 Title : DUB-R5
 Language : Russian

Audio #2
 ID : 3
 Format : DTS
 Format/Info : Digital Theater Systems
 Codec ID : A_DTS
 Duration : 2h 18mn
 Bit rate mode : Constant
 Bit rate : 1 510 Kbps
 Channel(s) : 6 channels
 Channel positions : Front: L C R, Side: L R, LFE
 Sampling rate : 48.0 KHz
 Bit depth : 24 bits
 Compression mode : Lossy
 Delay relative to video : 11ms
 Stream size : 1.46 GiB (9%)
 Title : Original
 Language : English

Text #1
 ID : 4
 Format : UTF-8
 Codec ID : S_TEXT/UTF8
 Codec ID/Info : UTF-8 Plain Text
 Title : Sub
 Language : Russian

Text #2
 ID : 5
 Format : UTF-8
 Codec ID : S_TEXT/UTF8
 Codec ID/Info : UTF-8 Plain Text
 Title : Sub-voronine
 Language : Russian

Text #3
 ID : 6
 Format : UTF-8
 Codec ID : S_TEXT/UTF8
 Codec ID/Info : UTF-8 Plain Text
 Title : Sub
 Language : Ukrainian

Text #4
 ID : 7
 Format : UTF-8
 Codec ID : S_TEXT/UTF8
 Codec ID/Info : UTF-8 Plain Text
 Title : Sub
 Language : English

Menu
 00:00:00.000 : en:00:00:00.000
 00:04:10.333 : en:00:04:10.333
 00:11:13.339 : en:00:11:13.339
 00:19:39.970 : en:00:19:39.970
 00:36:58.424 : en:00:36:58.424
 00:48:38.457 : en:00:48:38.457
 00:55:26.740 : en:00:55:26.740
 00:58:50.318 : en:00:58:50.318
 01:09:28.372 : en:01:09:28.372
 01:10:52.873 : en:01:10:52.873
 01:15:49.712 : en:01:15:49.712
 01:19:50.577 : en:01:19:50.577
 01:25:00.512 : en:01:25:00.512
 01:26:32.103 : en:01:26:32.103
 01:30:31.426 : en:01:30:31.426
 01:37:15.162 : en:01:37:15.162
 01:39:43.602 : en:01:39:43.602
 01:41:35.881 : en:01:41:35.881
 01:47:08.505 : en:01:47:08.505
 01:53:58.039 : en:01:53:58.039
 01:58:13.211 : en:01:58:13.211
 02:00:45.112 : en:02:00:45.112
 02:11:49.902 : en:02:11:49.902
 02:13:04.643 : en:02:13:04.643
Свернуть
"Скриншоты"

Изображение
Изображение
Изображение
Свернуть
Не в сети
Профиль  
 Добавлено: 2011-11-23 17:55 (спустя 4 дня)
Кинокомментатор
Аватара пользователя
Стаж: 9 лет
Сообщений: 1331
Лайков: 52
вооодааа! очень скучное кино!) еле еле посмотрел) выключить хотел на протяжение всего фильма!) но что то полезное вынес) да и Питт с неожиданной стороны так выступил:) да и интересно чем же закончится!) и изза чего весь фильм, так сказать))
6/10 это паталок!)
_________________
Я ВКонтакте
Не в сети
Профиль  
Начать новую темуОтветить на тему  [ Сообщений: 2 ] 
Вы не можете начинать темы
Вы не можете отвечать на сообщения
Вы не можете редактировать свои сообщения
Вы не можете удалять свои сообщения